<?xml version="1.0" standalone="no"?>
<!DOCTYPE svg PUBLIC "-//W3C//DTD SVG 1.1//EN" "http://www.w3.org/Graphics/SVG/1.1/DTD/svg11.dtd" >
<svg xmlns="http://www.w3.org/2000/svg">
<metadata>
This is a custom SVG webfont generated by Font Squirrel.
Copyright   : Generated in 2010 by FontLab Studio Copyright info pending
Designer    : Campivisivi
Foundry     : Campivisivi
</metadata>
<defs>
<font id="TitilliumText22LThin" horiz-adv-x="1085" >
<font-face units-per-em="2048" ascent="1536" descent="-512" />
<missing-glyph horiz-adv-x="481" />
<glyph unicode=" "  horiz-adv-x="481" />
<glyph unicode="&#x09;" horiz-adv-x="481" />
<glyph unicode="&#xa0;" horiz-adv-x="481" />
<glyph unicode="!" d="M512 0v164h82v-164h-82zM516 436v996h72v-996h-72z" />
<glyph unicode="&#x22;" horiz-adv-x="573" d="M102 1026v410h72v-410h-72zM391 1026v410h72v-410h-72z" />
<glyph unicode="#" d="M27 389v66h245v463h-245v65h245v389h74v-389h385v389h74v-389h246v-65h-246v-463h246v-66h-246v-389h-74v389h-385v-389h-74v389h-245zM346 455h385v463h-385v-463z" />
<glyph unicode="$" d="M129 1040q0 182 108.5 262t313.5 80q39 0 61 -2l31 238h72l-33 -242l256 -24l-8 -68q-137 16 -256 27l-74 -578q195 -33 281 -102.5t86 -235.5q0 -221 -102.5 -315t-311.5 -94q-33 0 -51 2l-29 -234q-72 6 -72 15l29 223l-293 26l8 68q158 -20 293 -29l82 617 q-104 16 -167.5 36.5t-119 59.5t-80 104.5t-24.5 165.5zM203 1044q0 -158 71.5 -214t253.5 -85l76 570q-20 2 -53 2q-348 -1 -348 -273zM512 53h41q170 0 255 79t85 257q0 133 -67.5 189.5t-235.5 85.5z" />
<glyph unicode="%" d="M59 1165q0 143 52.5 208t164.5 65q111 0 164.5 -64.5t53.5 -210.5q0 -283 -218 -282q-111 0 -164 68.5t-53 215.5zM131 1165q0 -111 33 -165t112 -54q82 0 114 53.5t32 163.5q0 109 -32 159t-114 50q-80 0 -112.5 -50.5t-32.5 -156.5zM381 12l295 1424l74 -15l-295 -1423 zM635 285q0 143 52 207.5t165 64.5q111 0 164 -64.5t53 -209.5q0 -283 -217 -283q-111 0 -164 69t-53 216zM707 285q0 -111 32.5 -165t112.5 -54q82 0 113.5 53t31.5 164q0 109 -31.5 159t-113.5 50q-80 0 -112.5 -50.5t-32.5 -156.5z" />
<glyph unicode="&#x26;" horiz-adv-x="1433" d="M119 426q0 182 77.5 271t256.5 141q-66 72 -85.5 133t-19.5 155q0 133 80 214t234 81q160 0 236.5 -79.5t76.5 -217.5q0 -147 -78 -230t-260 -142l383 -379q41 119 63 299h72q-29 -221 -80 -353l287 -280l-49 -53l-269 266q-135 -270 -454 -270q-258 0 -364.5 112.5 t-106.5 331.5zM190 428q0 -190 94.5 -284.5t309.5 -94.5q281 0 397 254l-485 481q-176 -47 -246 -122.5t-70 -233.5zM420 1126q0 -160 92 -252l74 -73q178 61 247.5 128.5t69.5 196.5q0 229 -241.5 229t-241.5 -229z" />
<glyph unicode="'" horiz-adv-x="204" d="M61 1430h82l-10 -431h-67z" />
<glyph unicode="(" horiz-adv-x="532" d="M115 616.5q0 182.5 49 411.5t98 369l51 139h72q-23 -59 -54.5 -158.5t-86 -344.5t-54.5 -417q0 -342 179 -829l16 -43h-72q-23 51 -55.5 139t-87.5 319.5t-55 414z" />
<glyph unicode=")" horiz-adv-x="532" d="M115 -256q23 57 54.5 152.5t85.5 333t54 407.5q0 172 -48 396t-97 364l-49 139h71q23 -55 55.5 -147.5t88 -331t55.5 -420.5t-49 -405.5t-98 -354.5l-52 -133h-71z" />
<glyph unicode="*" d="M279 938l225 164l-223 164l41 55l225 -166l86 264l65 -20l-86 -266h277v-70h-281l86 -264l-65 -21l-86 266l-226 -161z" />
<glyph unicode="+" horiz-adv-x="839" d="M-100 479v70h475v475h74v-475h479v-70h-479v-479h-74v479h-475z" />
<glyph unicode="," horiz-adv-x="348" d="M96 -252l86 430h82l-104 -430h-64z" />
<glyph unicode="-" horiz-adv-x="901" d="M123 541v69h655v-69h-655z" />
<glyph unicode="." horiz-adv-x="507" d="M201 0v164h82v-164h-82z" />
<glyph unicode="/" d="M223 25l568 1413l67 -29l-567 -1411z" />
<glyph unicode="0" d="M70 645q0 215 30.5 359.5t95 224.5t146.5 111.5t199 31.5q121 0 203.5 -31.5t146 -110.5t93.5 -222.5t30 -360.5q0 -193 -32 -323.5t-95.5 -204.5t-146.5 -105.5t-197.5 -31.5t-197.5 30.5t-147.5 103t-96 204.5t-31.5 325zM147 643q0 -178 27 -296t80 -181.5t121.5 -89 t167.5 -25.5q131 0 213 46t131 180.5t49 369.5q0 258 -45 403.5t-127 199t-223 53.5q-137 0 -219 -52.5t-128.5 -199t-46.5 -408.5z" />
<glyph unicode="1" d="M184 1073l418 279h74v-1352h-74v1272l-383 -258z" />
<glyph unicode="2" d="M125 0v70l465 489q96 102 142 157.5t87 139.5t41 170q0 150 -85 213.5t-259 63.5q-70 0 -162 -13.5t-149 -27.5l-58 -13l-10 70q190 53 381 53q209 0 314.5 -80t105.5 -266q0 -137 -62.5 -239.5t-205.5 -251.5l-445 -463h756v-72h-856z" />
<glyph unicode="3" d="M106 29l13 69q215 -47 432 -47q348 2 348 316q0 168 -89 236.5t-243 76.5h-274v70h272q100 0 197.5 75.5t97.5 210.5q0 145 -72.5 206t-252.5 61q-90 0 -187.5 -11.5t-150.5 -21.5l-52 -13l-12 70q195 45 399 45q217 0 311.5 -81t94.5 -257q0 -72 -23.5 -130t-56.5 -90 t-68.5 -54.5t-57 -29.5t-25.5 -7q133 -35 201.5 -108.5t68.5 -241.5q0 -199 -104.5 -295t-321.5 -96q-98 0 -210 11t-173 23z" />
<glyph unicode="4" d="M68 291v61l419 1000h80l-411 -992h622v449h74v-449h201v-69h-201v-291h-74v291h-710z" />
<glyph unicode="5" d="M119 35l10 69q225 -49 416 -49q170 0 270 102.5t100 293.5q0 324 -350 323q-82 0 -173 -28.5t-142 -57.5l-51 -26l-70 8l39 682h762v-72h-692l-37 -541q20 12 54 29.5t131 46.5t181 29q426 0 426 -393q0 -231 -117.5 -348t-328.5 -117q-205 0 -428 49z" />
<glyph unicode="6" d="M84 690q0 344 133 513t371 169q76 0 163 -6t136 -10l49 -6l-8 -68q-168 20 -340 21q-203 0 -313.5 -145.5t-112.5 -424.5l59 25q57 23 155.5 48t178.5 25q446 0 446 -405q0 -211 -117.5 -327.5t-340.5 -116.5q-459 -1 -459 708zM160 662q10 -610 383 -611 q186 0 283.5 96.5t97.5 278.5q0 168 -97.5 252t-273.5 84q-186 -6 -393 -100z" />
<glyph unicode="7" d="M121 1282v70h823v-133l-549 -1237l-71 28l542 1225v47h-745z" />
<glyph unicode="8" d="M49 344q0 156 68.5 233.5t208.5 135.5q-127 45 -190.5 118.5t-63.5 204.5q0 336 477 336q227 0 356 -83t129 -255q0 -133 -67.5 -206.5t-210.5 -114.5q143 -41 221 -120t78 -226q0 -213 -136.5 -299t-369.5 -86q-221 0 -360.5 84.5t-139.5 277.5zM129 346 q0 -295 420 -295q201 0 314.5 69.5t113.5 244.5q0 78 -23.5 133t-74 89t-97.5 51t-125 38h-239q-143 -35 -216 -109t-73 -221zM150 1034q0 -121 64.5 -186.5t203.5 -104.5h239q150 35 223.5 102.5t73.5 186.5q0 143 -104.5 207t-300.5 64q-195 0 -297 -62t-102 -207z" />
<glyph unicode="9" d="M96 924q0 205 123 326.5t328 121.5q240 0 353.5 -186.5t113.5 -521.5q0 -371 -129 -526.5t-385 -155.5q-76 0 -163 5t-136 11l-49 6l8 68q168 -20 340 -21q219 0 327.5 135.5t110.5 427.5q-233 -90 -414 -90q-428 1 -428 400zM174 924q0 -172 88 -251t266 -79 q162 0 412 92q-14 616 -393 617q-172 0 -272.5 -103.5t-100.5 -275.5z" />
<glyph unicode=":" horiz-adv-x="288" d="M158 0v164h82v-164h-82zM158 705v163h82v-163h-82z" />
<glyph unicode=";" horiz-adv-x="348" d="M76 -252l84 430h86l-107 -430h-63zM154 705v163h82v-163h-82z" />
<glyph unicode="&#x3c;" d="M129 602v74l711 469v-80l-645 -422l645 -444v-84q-641 436 -711 487z" />
<glyph unicode="=" d="M84 702v70h911v-70h-911zM86 356v70h911v-70h-911z" />
<glyph unicode="&#x3e;" d="M129 115v84l645 444l-645 422v80l711 -469v-74z" />
<glyph unicode="?" horiz-adv-x="790" d="M20 1397q229 55 340 55q203 0 306.5 -74.5t103.5 -249.5q0 -92 -42 -173t-102 -139l-120 -111q-59 -53 -101.5 -114t-42.5 -124v-78h-71v84q0 70 42 136.5t102 121.5l120 113q59 57 101 131t42 153q0 141 -83 198.5t-255 57.5l-329 -57zM287 2v164h82v-164h-82z" />
<glyph unicode="@" horiz-adv-x="2017" d="M123 535q0 506 221 722t688 216q463 0 662.5 -203t199.5 -645v-35q0 -125 -9 -220.5t-22.5 -160t-39 -108.5t-49 -67.5t-63.5 -35.5t-69.5 -15t-80.5 -3q-68 0 -103 6t-66.5 34.5t-50.5 88.5q-227 -127 -391 -127q-49 0 -86 5t-90 33.5t-86 80t-58.5 153.5t-25.5 244 q0 279 94.5 411.5t335.5 132.5q51 0 119 -13t109 -28l43 -14v37h71v-410q0 -285 15.5 -400.5t48.5 -144t121 -28.5q57 0 88.5 6t68.5 35t55.5 86t32 161.5t13.5 260.5v37q0 412 -180.5 596t-606.5 184q-436 0 -634.5 -196.5t-198.5 -675.5q0 -254 49 -424t156.5 -269.5 t257 -141.5t370.5 -42l293 20l6 -67q-201 -18 -299 -19q-238 0 -399.5 44.5t-280.5 149.5t-174 290t-55 459zM676 492q0 -145 25.5 -240.5t70.5 -136.5t85 -54.5t93 -13.5q164 0 377 123q-23 129 -22 444v308q-150 55 -271 55q-207 0 -282.5 -117.5t-75.5 -367.5z" />
<glyph unicode="A" horiz-adv-x="1236" d="M72 0l440 1434h217l436 -1430h-73l-138 436h-671l-138 -440h-73zM303 510h631l-260 854h-111z" />
<glyph unicode="B" horiz-adv-x="1284" d="M211 0v1434h491q209 0 311.5 -84t102.5 -265q0 -272 -198 -346q254 -70 253 -338q0 -221 -110.5 -311t-319.5 -90h-530zM285 70h456q170 0 262.5 74.5t92.5 256.5q0 297 -371 297h-440v-628zM285 766h440q164 0 239.5 80t75.5 239q0 147 -81.5 213t-256.5 66h-417v-598z " />
<glyph unicode="C" horiz-adv-x="1099" d="M119 711q0 145 11 249.5t43 203t87 157.5t147.5 95t221.5 36q86 0 181 -9t146 -20l52 -10l-7 -72q-207 41 -372 41q-113 0 -193 -32.5t-126 -85t-71.5 -143.5t-33.5 -183t-8 -227.5t8 -227.5t34.5 -180t73.5 -139t126 -82t190 -31q66 0 159 10.5t154 20.5l59 10l7 -69 q-217 -41 -379 -41q-156 0 -257.5 48t-156.5 148.5t-75.5 225.5t-20.5 307z" />
<glyph unicode="D" horiz-adv-x="1337" d="M211 0v1434h532q131 0 226.5 -57.5t150 -158t79 -220t24.5 -261.5q0 -143 -26 -268t-79 -233.5t-149.5 -172t-225.5 -63.5h-532zM285 70h458q111 0 192 59t125 160.5t64.5 213t20.5 234.5t-20.5 228.5t-64.5 198.5t-125 146.5t-192 53.5h-458v-1294z" />
<glyph unicode="E" horiz-adv-x="1171" d="M211 0v1434h838v-70h-764v-592h641v-70h-641v-632h764v-70h-838z" />
<glyph unicode="F" horiz-adv-x="1153" d="M211 0v1434h840v-70h-766v-647h643v-70h-643v-647h-74z" />
<glyph unicode="G" horiz-adv-x="1263" d="M123 711q0 178 23.5 306t81 230.5t165 153.5t266.5 51q215 0 451 -51l-6 -72q-258 53 -445 53q-141 0 -233 -45t-140 -139t-66.5 -207.5t-18.5 -279.5q0 -164 19.5 -278t68.5 -204t141 -134t229 -44q63 0 154.5 10.5t156 20.5t66.5 10v549h-307v70h381v-678 q-289 -51 -451 -51q-301 0 -418.5 182t-117.5 547z" />
<glyph unicode="H" horiz-adv-x="1425" d="M211 0v1434h74v-680h856v680h73v-1434h-73v684h-856v-684h-74z" />
<glyph unicode="I" horiz-adv-x="462" d="M195 0v1434h73v-1434h-73z" />
<glyph unicode="J" horiz-adv-x="622" d="M72 -80q74 0 105.5 1t72.5 11.5t53 26.5t27.5 54t18.5 89.5t3 133.5v1200h74q0 -217 1 -609.5t1 -611.5q0 -68 -4 -120t-17.5 -91t-25.5 -64.5t-40 -43t-47.5 -26.5t-63.5 -13t-71.5 -5.5t-86.5 -1.5v70z" />
<glyph unicode="K" horiz-adv-x="1222" d="M211 0v1434h74v-691h264l450 691h88l-473 -721l506 -713h-94l-473 674h-268v-674h-74z" />
<glyph unicode="L" d="M211 0v1434h74v-1364h698v-70h-772z" />
<glyph unicode="M" horiz-adv-x="1742" d="M211 0v1434h158l501 -1321l506 1321h156v-1434h-74v1364h-28l-510 -1321h-103l-504 1321h-28v-1364h-74z" />
<glyph unicode="N" horiz-adv-x="1406" d="M211 0v1434h174l682 -1364h55v1364h74v-1434h-174l-684 1364h-53v-1364h-74z" />
<glyph unicode="O" horiz-adv-x="1343" d="M123 711q0 377 118.5 559t430 182t430.5 -181t119 -560q0 -391 -116 -560t-433 -169q-164 0 -272.5 45t-169 142t-84 225.5t-23.5 316.5zM201 711q0 -174 18.5 -287t68.5 -202t144 -130t240 -41q147 0 240.5 38t143.5 125t68.5 201.5t18.5 295.5q0 344 -99.5 507.5 t-371.5 163.5q-143 0 -237.5 -43t-144.5 -134t-69.5 -206.5t-19.5 -287.5z" />
<glyph unicode="P" horiz-adv-x="1259" d="M211 0v1434h522q221 0 322.5 -104.5t101.5 -328.5q0 -475 -424 -475h-448v-526h-74zM285 596h448q346 0 346 405q0 188 -80.5 275.5t-265.5 87.5h-448v-768z" />
<glyph unicode="Q" horiz-adv-x="1343" d="M123 711q0 377 118.5 559t430 182t430.5 -181t119 -560q0 -281 -54.5 -440.5t-193.5 -231.5l176 -287l-74 -35l-178 293q-98 -29 -225 -28q-164 0 -272.5 45t-169 142t-84 225.5t-23.5 316.5zM201 711q0 -174 18.5 -287t68.5 -202t144 -130t240 -41q147 0 240.5 38 t143.5 125t68.5 201.5t18.5 295.5q0 344 -99.5 507.5t-371.5 163.5q-143 0 -237.5 -43t-144.5 -134t-69.5 -206.5t-19.5 -287.5z" />
<glyph unicode="R" horiz-adv-x="1290" d="M211 0v1434h514q217 0 321.5 -98.5t104.5 -311.5q0 -365 -297 -420l324 -604h-84l-320 594h-489v-594h-74zM285 664h440q190 0 269 92t79 268q0 178 -84 259t-264 81h-440v-700z" />
<glyph unicode="S" horiz-adv-x="1097" d="M109 1096q0 360 442 360l407 -33l-8 -71q-281 35 -399 34q-365 0 -365 -286q0 -61 9.5 -107.5t34 -78t51 -53t78 -37t94.5 -24.5t118 -22q223 -35 320.5 -107.5t97.5 -254.5q0 -231 -107.5 -330.5t-326.5 -99.5q-68 0 -177.5 8t-184.5 16l-76 8l8 72q283 -35 428 -35 q180 0 269 84t89 271q0 150 -77.5 207t-280.5 88q-123 18 -191.5 37.5t-133 60.5t-92 111.5t-27.5 181.5z" />
<glyph unicode="T" horiz-adv-x="1024" d="M0 1364v70h1024v-70h-473v-1364h-74v1364h-477z" />
<glyph unicode="U" horiz-adv-x="1314" d="M184 401v1033h74v-1033q0 -186 100.5 -268t288.5 -82q203 0 306.5 81t103.5 269v1033h73v-1033q0 -223 -121.5 -321t-361.5 -98q-225 0 -344 98t-119 321z" />
<glyph unicode="V" horiz-adv-x="1185" d="M72 1434h73l394 -1364h118l383 1364h74l-397 -1434h-238z" />
<glyph unicode="W" horiz-adv-x="1785" d="M92 1434h72l293 -1364h78l317 1343h82l328 -1343h77l283 1364h72l-295 -1434h-197l-309 1317l-299 -1317h-197z" />
<glyph unicode="X" horiz-adv-x="1189" d="M82 0l463 711l-463 723h88l426 -668l424 668h88l-457 -723l457 -711h-88l-422 659l-428 -659h-88z" />
<glyph unicode="Y" horiz-adv-x="1105" d="M51 1434h84l420 -736l414 736h86l-463 -818v-616h-74v616z" />
<glyph unicode="Z" horiz-adv-x="1167" d="M123 -2v141l846 1176v49h-846v70h921v-144l-845 -1177v-45h845v-70h-921z" />
<glyph unicode="[" horiz-adv-x="614" d="M100 -252v1786h373v-66h-301v-1654h301v-66h-373z" />
<glyph unicode="\" d="M197 1407l71 29l617 -1407l-72 -29z" />
<glyph unicode="]" horiz-adv-x="614" d="M100 -186h301v1654h-301v66h373v-1786h-373v66z" />
<glyph unicode="^" d="M143 682l351 670h75l371 -670h-86l-324 596l-305 -596h-82z" />
<glyph unicode="_" horiz-adv-x="1064" d="M55 -70h877v-69h-877v69z" />
<glyph unicode="`" horiz-adv-x="440" d="M20 1436l33 63l393 -196l-30 -56z" />
<glyph unicode="a" horiz-adv-x="1060" d="M113 281q0 133 66.5 206.5t215.5 87.5l389 41v107q0 131 -56 190.5t-171 59.5q-66 0 -163 -9.5t-161 -17.5l-63 -8l-6 68q229 37 393 36q299 0 299 -319v-588q8 -74 154 -86l-4 -65q-154 0 -211 82q-190 -84 -422 -84q-123 0 -191.5 77t-68.5 222zM188 281 q0 -111 50.5 -172.5t136.5 -61.5q90 0 192.5 20.5t159.5 41.5l57 20v420l-381 -37q-215 -22 -215 -231z" />
<glyph unicode="b" horiz-adv-x="1101" d="M207 0v1495h72v-534q170 82 352 81q203 0 275.5 -115.5t72.5 -391.5q0 -301 -96.5 -427t-370.5 -126zM279 59q160 -12 231 -12q127 0 206 27.5t120 93t54 147.5t13 215q0 244 -54 345.5t-218 101.5q-82 0 -170 -20.5t-135 -41.5l-47 -20v-836z" />
<glyph unicode="c" horiz-adv-x="894" d="M123 535q0 283 94 395t326 112l245 -20l-4 -66q-164 20 -241 21q-195 0 -269.5 -98.5t-74.5 -343.5q0 -276 67.5 -382t276.5 -106l245 19l5 -66q-172 -18 -250 -18q-250 0 -335 118t-85 435z" />
<glyph unicode="d" horiz-adv-x="1101" d="M123 498q0 279 94 411.5t336 132.5q117 0 270 -24v416h72v-1434h-72v86q-18 -12 -51 -29.5t-127 -46t-176 -28.5q-49 0 -86 5t-90 33.5t-86 80t-58.5 154t-25.5 243.5zM195 492q0 -145 25.5 -240.5t70.5 -136.5t85 -54.5t93 -13.5q172 2 354 107v798q-213 25 -270 25 q-207 0 -282.5 -117.5t-75.5 -367.5z" />
<glyph unicode="e" horiz-adv-x="1038" d="M123 512q0 530 414 530q195 0 292 -116.5t97 -374.5v-68h-727q0 -221 69.5 -328.5t241.5 -107.5l373 19l4 -66q-229 -18 -379 -18q-217 2 -301 132t-84 398zM199 549h651q0 231 -75 329.5t-238 98.5q-338 0 -338 -428z" />
<glyph unicode="f" horiz-adv-x="671" d="M72 958v66h141v125q0 215 57.5 289.5t202.5 74.5l189 -6v-63q-131 4 -189 4q-109 0 -148.5 -60.5t-39.5 -240.5v-123h331v-66h-331v-958h-72v958h-141z" />
<glyph unicode="g" horiz-adv-x="1032" d="M113 -164q0 66 23.5 113t53 73.5t97.5 75.5q-45 29 -45 133q0 14 15 54.5t30 72.5l16 33q-176 57 -176 311q0 342 350 342q49 0 103.5 -6t83.5 -14l30 -6l287 6v-72h-221q82 -76 82 -250q0 -186 -87 -260.5t-286 -74.5q-61 0 -111 8q-47 -117 -47 -144q0 -35 4 -51 t16.5 -30.5t47.5 -19.5t80 -7t133 -2q203 0 282.5 -56.5t79.5 -238.5q0 -166 -103 -240.5t-333 -74.5q-248 0 -326.5 68.5t-78.5 256.5zM186 -162q0 -152 64.5 -207t269.5 -55q190 0 274.5 58.5t84.5 191.5q0 147 -61.5 188t-229.5 41l-248 6q-92 -63 -123 -107t-31 -116z M201 702q0 -143 58 -206.5t210 -63.5q162 0 229.5 59.5t67.5 210.5q0 168 -61.5 222.5t-229.5 54.5q-141 0 -207.5 -61.5t-66.5 -215.5z" />
<glyph unicode="h" horiz-adv-x="1161" d="M207 0v1536h72v-573q180 80 356 79q205 0 270.5 -103t65.5 -407v-532h-72v528q0 270 -49 359.5t-215 89.5q-82 0 -171 -20.5t-136 -41.5l-49 -20v-895h-72z" />
<glyph unicode="i" horiz-adv-x="440" d="M184 0v1024h72v-1024h-72zM184 1321v113h72v-113h-72z" />
<glyph unicode="j" horiz-adv-x="477" d="M-61 -383q176 96 229 171t53 224v1012h72v-1014q0 -174 -64.5 -265t-261.5 -191zM221 1321v113h72v-113h-72z" />
<glyph unicode="k" horiz-adv-x="989" d="M207 0v1495h72v-897h192l373 426h84l-393 -463l393 -561h-84l-373 526h-192v-526h-72z" />
<glyph unicode="l" horiz-adv-x="460" d="M195 0v1495h71v-1495h-71z" />
<glyph unicode="m" horiz-adv-x="1792" d="M207 0v1024h72v-82l49 28q31 17 120 44.5t166 27.5q61 0 119 -10q98 -18 148 -88q229 98 385 98q205 0 270.5 -103t65.5 -407v-532h-72v528q0 270 -49 359.5t-215 89.5q-80 0 -168 -25.5t-130 -46t-55 -28.5q37 -100 37 -345v-532h-71v528q0 270 -49.5 359.5t-215.5 89.5 q-172 0 -331 -100l-4 -3v-874h-72z" />
<glyph unicode="n" horiz-adv-x="1173" d="M207 0v1024h72v-82q182 100 358 100q205 0 270.5 -103t65.5 -407v-532h-72v528q0 270 -49 359.5t-215 89.5q-178 -2 -358 -103v-874h-72z" />
<glyph unicode="o" horiz-adv-x="1077" d="M123 535q0 283 95 395t325 112q211 0 311 -118.5t100 -393.5q0 -301 -84 -424.5t-327 -123.5q-250 0 -335 119t-85 434zM199 535q0 -143 11 -226.5t48 -148t104.5 -89t180.5 -24.5q111 0 179.5 27.5t102 94.5t44 146.5t10.5 214.5q0 242 -81 344.5t-255 102.5 q-199 0 -271.5 -93t-72.5 -349z" />
<glyph unicode="p" horiz-adv-x="1105" d="M207 -471v1495h72v-86q18 12 50.5 29.5t127 46t176.5 28.5q184 0 267 -124.5t83 -391.5q0 -289 -99.5 -416.5t-334.5 -127.5q-139 0 -270 28v-481h-72zM279 76q158 -29 270 -29q197 0 277.5 109.5t80.5 375.5q0 238 -68.5 341.5t-205.5 103.5q-168 0 -350 -107l-4 -2 v-792z" />
<glyph unicode="q" horiz-adv-x="1101" d="M123 489q0 297 101.5 425t365.5 128l305 -18v-1495h-72v530q-150 -78 -331 -77q-203 0 -286 123.5t-83 383.5zM199 494q0 -227 64.5 -337t228.5 -110q82 0 164.5 20.5t125.5 41.5l41 20v836q-160 12 -231 12q-231 0 -312 -112.5t-81 -370.5z" />
<glyph unicode="r" horiz-adv-x="724" d="M207 0v1024h72v-160q20 16 56 40t142.5 73t206.5 67v-69q-197 -39 -405 -178v-797h-72z" />
<glyph unicode="s" horiz-adv-x="989" d="M123 768q0 102 55 166.5t129 86t166 21.5q70 0 158 -7t141 -15l53 -8l-4 -68q-209 33 -348 33q-274 0 -274 -205q0 -96 57 -136t233 -67q217 -35 295 -86t78 -188q0 -172 -98 -242.5t-291 -70.5q-51 0 -136 8t-144 16l-58 8l8 68q221 -35 326 -35q158 0 237.5 51.5 t79.5 190.5q0 106 -62 145t-255 68q-195 31 -270.5 81t-75.5 185z" />
<glyph unicode="t" horiz-adv-x="761" d="M72 958v66h161v334h72v-334h373v-66h-373v-536q0 -236 34 -306.5t155 -70.5l200 16l6 -65q-135 -16 -206 -16q-145 0 -203 74.5t-58 289.5v614h-161z" />
<glyph unicode="u" horiz-adv-x="1140" d="M190 492v532h72v-528q0 -270 49 -359.5t215 -89.5q172 0 332 100l4 3v874h72v-1024h-72v82l-49 -28q-31 -17 -120 -44.5t-167 -27.5q-205 0 -270.5 103.5t-65.5 406.5z" />
<glyph unicode="v" horiz-adv-x="983" d="M72 1024h75l299 -958h89l301 958h75l-321 -1024h-201z" />
<glyph unicode="w" horiz-adv-x="1558" d="M78 1024h76l260 -958h22l303 938h80l301 -938h23l262 958h76l-281 -1024h-139l-283 918l-284 -918h-140z" />
<glyph unicode="x" horiz-adv-x="933" d="M78 0l346 512l-346 512h82l307 -457l307 457h82l-346 -512l346 -512h-84l-305 457l-305 -457h-84z" />
<glyph unicode="y" horiz-adv-x="983" d="M72 1024h75l302 -958h83l304 958h75l-469 -1495h-75l147 471h-125z" />
<glyph unicode="z" horiz-adv-x="985" d="M113 0v66l671 892h-671v66h759v-66l-671 -892h671v-66h-759z" />
<glyph unicode="{" horiz-adv-x="583" d="M0 602v66q117 29 165 86t48 159q0 27 -7 124.5t-7 138.5q0 184 83 269t277 93l4 -65q-168 -8 -230.5 -79t-62.5 -218q0 -35 7.5 -125t7.5 -119q0 -133 -45 -195.5t-160 -99.5q115 -37 160 -100.5t45 -190.5q-2 -20 -8.5 -105t-6.5 -132q0 -145 63.5 -217t229.5 -80 l-4 -66q-195 8 -277.5 93t-82.5 270q0 43 7 136t7 115q0 98 -48 153.5t-165 88.5z" />
<glyph unicode="|" d="M496 -121v1555h71v-1555h-71z" />
<glyph unicode="}" horiz-adv-x="583" d="M0 -188q166 8 229.5 79.5t63.5 217.5q0 47 -6 132t-8 105q0 127 45 190.5t159 100.5q-115 37 -159.5 99.5t-44.5 195.5q0 29 7 119t7 125q0 147 -62.5 217.5t-230.5 79.5l4 65q195 -8 278 -93t83 -269q0 -41 -7.5 -138.5t-7.5 -124.5q0 -102 48 -159.5t165 -85.5v-66 q-117 -33 -165 -88t-48 -154q0 -23 7.5 -115.5t7.5 -135.5q0 -184 -83 -269.5t-278 -93.5z" />
<glyph unicode="~" d="M139 649q115 111 209 111q70 0 210 -55.5t181 -55.5q33 0 81 28t81 54l31 27l14 -76q-111 -106 -205 -107q-68 0 -207 55.5t-186 55.5q-33 0 -82 -27.5t-82 -54.5l-30 -26z" />
<glyph unicode="&#xa1;" d="M512 858v164h82v-164h-82zM518 -410v996h72v-996h-72z" />
<glyph unicode="&#xa2;" horiz-adv-x="894" d="M121 506q0 225 89 328.5t267 109.5v266h72v-268l237 -20l-4 -72q-205 20 -282 20q-164 0 -230.5 -82.5t-66.5 -281.5q0 -203 64.5 -275.5t252.5 -72.5l266 16l5 -72q-152 -16 -240 -18v-258h-72v258q-197 6 -277.5 93t-80.5 329z" />
<glyph unicode="&#xa3;" d="M193 0v70h188v696h-141v65h141v130q0 258 60.5 345t220.5 87l245 -25v-65q-178 25 -245 24q-127 0 -168 -73.5t-41 -301.5v-121h372v-65h-372v-696h356l168 32l14 -65l-168 -37h-630z" />
<glyph unicode="&#xa4;" horiz-adv-x="1083" d="M127 154l145 143q-78 96 -77.5 219t77.5 219l-145 144l53 53l144 -146q94 78 219 78t219 -78l143 146l53 -53l-145 -144q78 -96 78 -219t-78 -219l145 -143l-53 -54l-143 146q-94 -78 -219 -78t-219 78l-144 -146zM270 516q0 -115 78 -194q80 -78 194.5 -78t194.5 78 q78 80 78 194.5t-78 194.5q-80 78 -194.5 77.5t-194.5 -77.5q-78 -80 -78 -195z" />
<glyph unicode="&#xa5;" horiz-adv-x="1105" d="M51 1352h84l420 -633l414 633h86l-391 -604h344v-70h-390l-26 -41v-195h418v-69h-418v-373h-74v373h-420v69h420v195l-26 41h-396v70h350z" />
<glyph unicode="&#xa6;" d="M489 -123v729h70v-729h-70zM489 807v729h70v-729h-70z" />
<glyph unicode="&#xa7;" d="M164 580q0 61 27.5 122.5t54.5 92.5l28 30q-90 68 -90 234q0 145 94.5 219t264.5 74l319 -27l-4 -65q-217 27 -315 26q-287 0 -287 -225q0 -133 66.5 -179t236.5 -73q176 -27 258 -86t82 -201q0 -131 -80 -260q74 -57 74 -190q0 -160 -91 -242t-263 -82q-55 0 -141.5 7 t-143.5 14l-59 6l6 65q225 -29 338 -28q283 0 282 258q0 117 -64.5 154.5t-232.5 60.5q-188 27 -274 89.5t-86 205.5zM236 584q0 -111 71.5 -161t231.5 -73q164 -25 227 -55q61 106 61 221q0 117 -66.5 161t-215.5 66q-162 27 -219 54q-90 -109 -90 -213z" />
<glyph unicode="&#xa8;" horiz-adv-x="440" d="M0 1307v127h72v-127h-72zM389 1307v127h72v-127h-72z" />
<glyph unicode="&#xa9;" d="M20 889q0 227 149.5 386t373 159t374 -159t150.5 -386t-150.5 -385t-374 -158t-373 158t-149.5 385zM86 889q0 -201 130 -339t326.5 -138t327.5 138t131 339t-131 340t-327.5 139t-326.5 -139t-130 -340zM319 887q0 156 47.5 235.5t176.5 79.5l151 -14l-2 -66 q-84 14 -149 15q-100 0 -129 -57.5t-29 -192.5q0 -127 33 -186.5t125 -59.5l149 16l2 -65q-88 -16 -151 -17q-127 0 -175.5 79t-48.5 233z" />
<glyph unicode="&#xaa;" horiz-adv-x="1060" d="M283 954q0 143 153 156l209 14v47q0 66 -24.5 89.5t-81.5 23.5l-213 -14l-4 63q141 16 217 17q88 0 129 -42t41 -139v-274q12 -41 75 -47l-4 -57q-66 2 -110 45q-129 -45 -244 -45q-63 0 -103 44.5t-40 118.5zM350 950q0 -94 82 -94q41 0 94.5 8t85.5 17l33 10v174 l-199 -12q-51 -4 -73.5 -28t-22.5 -75z" />
<glyph unicode="&#xab;" d="M184 479v74l342 264v-80l-276 -217l276 -239v-84zM608 479v74l342 264v-80l-276 -217l276 -239v-84z" />
<glyph unicode="&#xac;" d="M141 610v70h811v-422h-73v352h-738z" />
<glyph unicode="&#xae;" d="M20 889q0 227 149.5 386t373 159t374 -159t150.5 -386t-150.5 -385t-374 -158t-373 158t-149.5 385zM86 889q0 -201 130 -339t326.5 -138t327.5 138t131 339t-131 340t-327.5 139t-326.5 -139t-130 -340zM334 565v645h186q131 0 183.5 -41t52.5 -143q0 -156 -121 -186 l133 -275h-72l-135 269h-162v-269h-65zM399 899h164q70 0 98.5 27.5t28.5 99.5q0 68 -39 93.5t-125 25.5h-127v-246z" />
<glyph unicode="&#xaf;" horiz-adv-x="440" d="M-41 1315v65h547v-65h-547z" />
<glyph unicode="&#xb0;" d="M221 1155q0 125 77 202t202 77t201.5 -77t76.5 -202t-76.5 -200.5t-201.5 -75.5t-202 75.5t-77 200.5zM291 1155q0 -96 57.5 -153.5t151.5 -57.5q96 0 154.5 58.5t58.5 152.5t-59.5 153.5t-153.5 59.5t-151.5 -58.5t-57.5 -154.5z" />
<glyph unicode="&#xb1;" d="M113 676v69h395v283h74v-283h407v-69h-407v-295h-74v295h-395zM115 164v69h876v-69h-876z" />
<glyph unicode="&#xb2;" horiz-adv-x="542" d="M57 979v70l201 213q37 39 56.5 63.5t37 62t17.5 76.5q0 102 -117 103l-184 -25l-5 68q104 27 191 26q188 0 188 -174q0 -66 -31.5 -121t-101.5 -127l-155 -165h303v-70h-400z" />
<glyph unicode="&#xb3;" horiz-adv-x="542" d="M59 983l7 66q111 -18 213 -19q129 0 129 119q0 125 -123 125h-133v69h133q37 0 70.5 39t33.5 91q0 47 -26.5 70.5t-92.5 23.5q-41 0 -90 -5.5t-78 -9.5l-28 -4l-6 66q109 23 200 22q100 0 148.5 -38.5t48.5 -124.5q0 -53 -24.5 -92.5t-42 -50.5t-31.5 -17 q61 -18 88.5 -50t27.5 -112q0 -190 -204 -190z" />
<glyph unicode="&#xb4;" horiz-adv-x="548" d="M82 1303l393 196l33 -63l-395 -189z" />
<glyph unicode="&#xb5;" d="M184 -512v1536h72v-528q0 -270 49 -359.5t215 -89.5q172 0 332 100l4 3v874h72v-1024h-72v82l-49 -28q-31 -17 -120 -44.5t-167 -27.5q-193 0 -264 104v-598h-72z" />
<glyph unicode="&#x3bc;" d="M184 -512v1536h72v-528q0 -270 49 -359.5t215 -89.5q172 0 332 100l4 3v874h72v-1024h-72v82l-49 -28q-31 -17 -120 -44.5t-167 -27.5q-193 0 -264 104v-598h-72z" />
<glyph unicode="&#xb6;" d="M16 1073q0 158 110 259.5t271 101.5h672v-68h-199v-1366h-73v1366h-312v-1366h-73v717h-15q-162 0 -271.5 99t-109.5 257z" />
<glyph unicode="&#xb7;" horiz-adv-x="507" d="M201 553v164h82v-164h-82z" />
<glyph unicode="&#xb8;" horiz-adv-x="1705" d="M811 -403l4 57q90 -8 160 -8q98 0 98 94q0 86 -98 86h-111v176h68v-119q115 0 164 -30.5t49 -112.5q0 -152 -168 -152z" />
<glyph unicode="&#xb9;" horiz-adv-x="542" d="M80 1481l203 137h73v-639h-73v559l-168 -115z" />
<glyph unicode="&#xba;" horiz-adv-x="1077" d="M295 1073q0 276 235 277q119 0 175.5 -66.5t56.5 -210.5q0 -283 -232 -282q-235 -1 -235 282zM365 1073q0 -117 38.5 -167t126.5 -50t125 50t37 167t-37 164t-125 47t-126.5 -48t-38.5 -163z" />
<glyph unicode="&#xbb;" d="M135 197v84l277 239l-277 217v80l342 -264v-74zM559 197v84l277 239l-277 217v80l342 -264v-74z" />
<glyph unicode="&#xbf;" horiz-adv-x="790" d="M20 -104q0 92 42 173t103 139l120 111q59 53 101 114t42 124v78h72v-84q0 -70 -42 -136.5t-103 -121.5l-119 -113q-59 -57 -101.5 -131t-42.5 -153q0 -141 83 -198.5t255 -57.5l330 57l10 -70q-229 -55 -340 -55q-203 0 -306.5 75t-103.5 249zM422 858v164h82v-164h-82z " />
<glyph unicode="&#xc0;" horiz-adv-x="1236" d="M72 0l440 1434h217l436 -1430h-73l-138 436h-671l-138 -440h-73zM303 510h631l-260 854h-111zM377 1825l33 63l393 -196l-31 -56z" />
<glyph unicode="&#xc1;" horiz-adv-x="1236" d="M72 0l440 1434h217l436 -1430h-73l-138 436h-671l-138 -440h-73zM303 510h631l-260 854h-111zM426 1712l393 197l33 -64l-395 -188z" />
<glyph unicode="&#xc2;" horiz-adv-x="1236" d="M72 0l440 1434h217l436 -1430h-73l-138 436h-671l-138 -440h-73zM303 510h631l-260 854h-111zM340 1638l248 271h57l250 -271h-88l-189 205l-190 -205h-88z" />
<glyph unicode="&#xc3;" horiz-adv-x="1236" d="M72 0l440 1434h217l436 -1430h-73l-138 436h-671l-138 -440h-73zM303 510h631l-260 854h-111zM311 1778q100 96 168 96q43 0 157 -54.5t144 -54.5q37 0 127 84l19 -61q-86 -88 -150 -88q-43 0 -156.5 55t-144.5 55q-43 0 -143 -92z" />
<glyph unicode="&#xc4;" horiz-adv-x="1236" d="M72 0l440 1434h217l436 -1430h-73l-138 436h-671l-138 -440h-73zM303 510h631l-260 854h-111zM408 1716v127h71v-127h-71zM797 1716v127h71v-127h-71z" />
<glyph unicode="&#xc5;" horiz-adv-x="1236" d="M72 0l428 1395q-82 49 -82 159q0 88 54 138.5t144.5 50.5t144.5 -50.5t54 -138.5q0 -106 -76 -155l426 -1395h-73l-138 436h-671l-138 -440h-73zM303 510h631l-260 854h-111zM485 1554q0 -98 82 -120h97q84 23 84 120q0 61 -35 94t-96.5 33t-96.5 -33t-35 -94z" />
<glyph unicode="&#xc6;" horiz-adv-x="1839" d="M72 0l514 1434h1130v-70h-764v-590h641v-69h-641v-635h764v-70h-837v440h-566l-159 -440h-82zM338 510h541v854h-236z" />
<glyph unicode="&#xc7;" horiz-adv-x="1099" d="M119 711q0 145 11 249.5t43 203t87 157.5t147.5 95t221.5 36q86 0 181 -9t146 -20l52 -10l-7 -72q-207 41 -372 41q-113 0 -193 -32.5t-126 -85t-71.5 -143.5t-33.5 -183t-8 -227.5t8 -227.5t34.5 -180t73.5 -139t126 -82t190 -31q66 0 159 10.5t154 20.5l59 10l7 -69 q-199 -37 -357 -41v-99q115 0 164 -30.5t49 -112.5q0 -152 -168 -152l-166 9l5 57q90 -8 159 -8q98 0 99 94q0 86 -99 86h-110v158q-113 6 -196 41.5t-134 95t-82 152t-42 196t-11 242.5z" />
<glyph unicode="&#xc8;" horiz-adv-x="1171" d="M211 0v1434h838v-70h-764v-592h641v-70h-641v-632h764v-70h-838zM410 1825l32 63l394 -196l-31 -56z" />
<glyph unicode="&#xc9;" horiz-adv-x="1171" d="M211 0v1434h838v-70h-764v-592h641v-70h-641v-632h764v-70h-838zM457 1712l393 197l33 -64l-396 -188z" />
<glyph unicode="&#xca;" horiz-adv-x="1171" d="M211 0v1434h838v-70h-764v-592h641v-70h-641v-632h764v-70h-838zM352 1638l248 271h57l250 -271h-88l-188 205l-191 -205h-88z" />
<glyph unicode="&#xcb;" horiz-adv-x="1171" d="M211 0v1434h838v-70h-764v-592h641v-70h-641v-632h764v-70h-838zM399 1716v127h72v-127h-72zM788 1716v127h72v-127h-72z" />
<glyph unicode="&#xcc;" horiz-adv-x="462" d="M-41 1825l33 63l393 -196l-31 -56zM195 0v1434h73v-1434h-73z" />
<glyph unicode="&#xcd;" horiz-adv-x="462" d="M41 1692l393 196l33 -63l-395 -189zM195 0v1434h73v-1434h-73z" />
<glyph unicode="&#xce;" horiz-adv-x="462" d="M-72 1657l275 256h61l275 -256h-93l-213 196l-210 -196h-95zM195 0v1434h73v-1434h-73z" />
<glyph unicode="&#xcf;" horiz-adv-x="462" d="M-2 1716v127h72v-127h-72zM195 0v1434h73v-1434h-73zM399 1716v127h72v-127h-72z" />
<glyph unicode="&#xd0;" horiz-adv-x="1337" d="M53 664v69h158v701h532q131 0 226.5 -57.5t150 -158t79 -220t24.5 -261.5q0 -143 -26 -268t-79 -233.5t-149.5 -172t-225.5 -63.5h-532v664h-158zM285 70h458q111 0 192 59t125 160.5t64.5 213t20.5 234.5t-20.5 228.5t-64.5 198.5t-125 146.5t-192 53.5h-458v-631h342 v-69h-342v-594z" />
<glyph unicode="&#xd1;" horiz-adv-x="1406" d="M211 0v1434h174l682 -1364h55v1364h74v-1434h-174l-684 1364h-53v-1364h-74zM395 1778q100 96 168 96q43 0 157 -54.5t144 -54.5q37 0 127 84l19 -61q-86 -88 -150 -88q-43 0 -156.5 55t-144.5 55q-43 0 -143 -92z" />
<glyph unicode="&#xd2;" horiz-adv-x="1343" d="M123 711q0 377 118.5 559t430 182t430.5 -181t119 -560q0 -391 -116 -560t-433 -169q-164 0 -272.5 45t-169 142t-84 225.5t-23.5 316.5zM201 711q0 -174 18.5 -287t68.5 -202t144 -130t240 -41q147 0 240.5 38t143.5 125t68.5 201.5t18.5 295.5q0 344 -99.5 507.5 t-371.5 163.5q-143 0 -237.5 -43t-144.5 -134t-69.5 -206.5t-19.5 -287.5zM453 1825l32 63l394 -196l-31 -56z" />
<glyph unicode="&#xd3;" horiz-adv-x="1343" d="M123 711q0 377 118.5 559t430 182t430.5 -181t119 -560q0 -391 -116 -560t-433 -169q-164 0 -272.5 45t-169 142t-84 225.5t-23.5 316.5zM201 711q0 -174 18.5 -287t68.5 -202t144 -130t240 -41q147 0 240.5 38t143.5 125t68.5 201.5t18.5 295.5q0 344 -99.5 507.5 t-371.5 163.5q-143 0 -237.5 -43t-144.5 -134t-69.5 -206.5t-19.5 -287.5zM459 1712l393 197l33 -64l-396 -188z" />
<glyph unicode="&#xd4;" horiz-adv-x="1343" d="M123 711q0 377 118.5 559t430 182t430.5 -181t119 -560q0 -391 -116 -560t-433 -169q-164 0 -272.5 45t-169 142t-84 225.5t-23.5 316.5zM201 711q0 -174 18.5 -287t68.5 -202t144 -130t240 -41q147 0 240.5 38t143.5 125t68.5 201.5t18.5 295.5q0 344 -99.5 507.5 t-371.5 163.5q-143 0 -237.5 -43t-144.5 -134t-69.5 -206.5t-19.5 -287.5zM395 1638l248 271h57l250 -271h-88l-188 205l-191 -205h-88z" />
<glyph unicode="&#xd5;" horiz-adv-x="1343" d="M123 711q0 377 118.5 559t430 182t430.5 -181t119 -560q0 -391 -116 -560t-433 -169q-164 0 -272.5 45t-169 142t-84 225.5t-23.5 316.5zM201 711q0 -174 18.5 -287t68.5 -202t144 -130t240 -41q147 0 240.5 38t143.5 125t68.5 201.5t18.5 295.5q0 344 -99.5 507.5 t-371.5 163.5q-143 0 -237.5 -43t-144.5 -134t-69.5 -206.5t-19.5 -287.5zM367 1778q100 96 168 96q43 0 156.5 -54.5t144.5 -54.5q37 0 127 84l18 -61q-86 -88 -150 -88q-43 0 -156.5 55t-144.5 55q-43 0 -143 -92z" />
<glyph unicode="&#xd6;" horiz-adv-x="1343" d="M123 711q0 377 118.5 559t430 182t430.5 -181t119 -560q0 -391 -116 -560t-433 -169q-164 0 -272.5 45t-169 142t-84 225.5t-23.5 316.5zM201 711q0 -174 18.5 -287t68.5 -202t144 -130t240 -41q147 0 240.5 38t143.5 125t68.5 201.5t18.5 295.5q0 344 -99.5 507.5 t-371.5 163.5q-143 0 -237.5 -43t-144.5 -134t-69.5 -206.5t-19.5 -287.5zM436 1716v127h72v-127h-72zM825 1716v127h72v-127h-72z" />
<glyph unicode="&#xd7;" horiz-adv-x="1705" d="M401 80l412 432l-407 426l55 49l401 -424l404 424l55 -49l-408 -426l412 -432l-53 -47l-410 426l-407 -426z" />
<glyph unicode="&#xd8;" horiz-adv-x="1343" d="M123 711q0 377 118.5 559t430.5 182q168 0 286 -57l107 227l68 -29l-113 -237q111 -86 156 -244t45 -401q0 -391 -116 -560t-433 -169q-162 0 -275 47l-118 -256l-68 26l123 264q-117 78 -164 236t-47 412zM201 711q0 -229 35.5 -368.5t130.5 -211.5l559 1196 q-98 55 -254 55q-143 0 -237.5 -43t-144.5 -134t-69.5 -206.5t-19.5 -287.5zM428 94q96 -43 243.5 -43t241 38t143.5 125t68.5 201.5t18.5 295.5q0 430 -156 573z" />
<glyph unicode="&#xd9;" horiz-adv-x="1314" d="M184 401v1033h74v-1033q0 -186 100.5 -268t288.5 -82q203 0 306.5 81t103.5 269v1033h73v-1033q0 -223 -121.5 -321t-361.5 -98q-225 0 -344 98t-119 321zM434 1825l33 63l393 -196l-31 -56z" />
<glyph unicode="&#xda;" horiz-adv-x="1314" d="M184 401v1033h74v-1033q0 -186 100.5 -268t288.5 -82q203 0 306.5 81t103.5 269v1033h73v-1033q0 -223 -121.5 -321t-361.5 -98q-225 0 -344 98t-119 321zM444 1712l394 197l32 -64l-395 -188z" />
<glyph unicode="&#xdb;" horiz-adv-x="1314" d="M184 401v1033h74v-1033q0 -186 100.5 -268t288.5 -82q203 0 306.5 81t103.5 269v1033h73v-1033q0 -223 -121.5 -321t-361.5 -98q-225 0 -344 98t-119 321zM381 1638l248 271h57l250 -271h-88l-189 205l-190 -205h-88z" />
<glyph unicode="&#xdc;" horiz-adv-x="1314" d="M184 401v1033h74v-1033q0 -186 100.5 -268t288.5 -82q203 0 306.5 81t103.5 269v1033h73v-1033q0 -223 -121.5 -321t-361.5 -98q-225 0 -344 98t-119 321zM451 1716v127h71v-127h-71zM840 1716v127h71v-127h-71z" />
<glyph unicode="&#xdd;" horiz-adv-x="1105" d="M51 1434h84l420 -736l414 736h86l-463 -818v-616h-74v616zM340 1712l393 197l33 -64l-395 -188z" />
<glyph unicode="&#xde;" horiz-adv-x="1259" d="M211 0v1434h74v-250h448q221 0 322.5 -104.5t101.5 -327.5q0 -475 -424 -476h-448v-276h-74zM285 346h448q346 0 346 406q0 188 -80.5 275t-265.5 87h-448v-768z" />
<glyph unicode="&#xdf;" horiz-adv-x="1206" d="M207 0v1149q0 205 82 284.5t272 79.5q195 0 271.5 -64.5t76.5 -211.5q0 -94 -33.5 -167t-97.5 -97q-90 -35 -115.5 -52.5t-25.5 -50.5q0 -23 28.5 -47t143.5 -94l60 -36l54 -31l43 -27l38 -25q12 -8 28.5 -21.5t23.5 -22.5t15 -21.5t10 -24.5t2 -26q0 -145 -18 -234.5 t-70.5 -156t-148.5 -94t-250 -27.5l-160 8l8 69q117 -8 152 -8q139 0 222 23.5t124 84t52.5 132t11.5 203.5q0 25 -54.5 63.5t-193.5 118.5q-133 76 -166 109.5t-33 84.5q0 57 38 87t140 75q61 27 77.5 74t16.5 131q0 117 -58 162t-211.5 45t-217 -64.5t-63.5 -257.5v-1122 h-74z" />
<glyph unicode="&#xe0;" horiz-adv-x="1060" d="M113 281q0 133 66.5 206.5t215.5 87.5l389 41v107q0 131 -56 190.5t-171 59.5q-66 0 -163 -9.5t-161 -17.5l-63 -8l-6 68q229 37 393 36q299 0 299 -319v-588q8 -74 154 -86l-4 -65q-154 0 -211 82q-190 -84 -422 -84q-123 0 -191.5 77t-68.5 222zM188 281 q0 -111 50.5 -172.5t136.5 -61.5q90 0 192.5 20.5t159.5 41.5l57 20v420l-381 -37q-215 -22 -215 -231zM287 1436l32 63l394 -196l-31 -56z" />
<glyph unicode="&#xe1;" horiz-adv-x="1060" d="M113 281q0 133 66.5 206.5t215.5 87.5l389 41v107q0 131 -56 190.5t-171 59.5q-66 0 -163 -9.5t-161 -17.5l-63 -8l-6 68q229 37 393 36q299 0 299 -319v-588q8 -74 154 -86l-4 -65q-154 0 -211 82q-190 -84 -422 -84q-123 0 -191.5 77t-68.5 222zM188 281 q0 -111 50.5 -172.5t136.5 -61.5q90 0 192.5 20.5t159.5 41.5l57 20v420l-381 -37q-215 -22 -215 -231zM285 1303l393 196l33 -63l-396 -189z" />
<glyph unicode="&#xe2;" horiz-adv-x="1060" d="M113 281q0 133 66.5 206.5t215.5 87.5l389 41v107q0 131 -56 190.5t-171 59.5q-66 0 -163 -9.5t-161 -17.5l-63 -8l-6 68q229 37 393 36q299 0 299 -319v-588q8 -74 154 -86l-4 -65q-154 0 -211 82q-190 -84 -422 -84q-123 0 -191.5 77t-68.5 222zM188 281 q0 -111 50.5 -172.5t136.5 -61.5q90 0 192.5 20.5t159.5 41.5l57 20v420l-381 -37q-215 -22 -215 -231zM225 1229l248 270h57l250 -270h-88l-188 205l-191 -205h-88z" />
<glyph unicode="&#xe3;" horiz-adv-x="1060" d="M113 281q0 133 66.5 206.5t215.5 87.5l389 41v107q0 131 -56 190.5t-171 59.5q-66 0 -163 -9.5t-161 -17.5l-63 -8l-6 68q229 37 393 36q299 0 299 -319v-588q8 -74 154 -86l-4 -65q-154 0 -211 82q-190 -84 -422 -84q-123 0 -191.5 77t-68.5 222zM188 281 q0 -111 50.5 -172.5t136.5 -61.5q90 0 192.5 20.5t159.5 41.5l57 20v420l-381 -37q-215 -22 -215 -231zM197 1368q100 96 168 96q43 0 156.5 -54t144.5 -54q37 0 127 84l18 -62q-86 -88 -149 -88q-43 0 -157 55.5t-145 55.5q-43 0 -143 -92z" />
<glyph unicode="&#xe4;" horiz-adv-x="1060" d="M113 281q0 133 66.5 206.5t215.5 87.5l389 41v107q0 131 -56 190.5t-171 59.5q-66 0 -163 -9.5t-161 -17.5l-63 -8l-6 68q229 37 393 36q299 0 299 -319v-588q8 -74 154 -86l-4 -65q-154 0 -211 82q-190 -84 -422 -84q-123 0 -191.5 77t-68.5 222zM188 281 q0 -111 50.5 -172.5t136.5 -61.5q90 0 192.5 20.5t159.5 41.5l57 20v420l-381 -37q-215 -22 -215 -231zM289 1307v127h71v-127h-71zM678 1307v127h72v-127h-72z" />
<glyph unicode="&#xe5;" horiz-adv-x="1060" d="M113 281q0 133 66.5 206.5t215.5 87.5l389 41v107q0 131 -56 190.5t-171 59.5q-66 0 -163 -9.5t-161 -17.5l-63 -8l-6 68q229 37 393 36q299 0 299 -319v-588q8 -74 154 -86l-4 -65q-154 0 -211 82q-190 -84 -422 -84q-123 0 -191.5 77t-68.5 222zM188 281 q0 -111 50.5 -172.5t136.5 -61.5q90 0 192.5 20.5t159.5 41.5l57 20v420l-381 -37q-215 -22 -215 -231zM328 1331q0 82 57 138.5t139 56.5t137.5 -56.5t55.5 -138.5t-55.5 -138t-137.5 -56q-84 0 -140 56t-56 138zM397 1331q0 -53 37 -92t90 -39q51 0 88 39t37 92t-37 91 t-88 38q-53 0 -90 -38t-37 -91z" />
<glyph unicode="&#xe6;" horiz-adv-x="1695" d="M113 281q0 164 79.5 220t299.5 85l292 30v107q0 131 -56 190.5t-171 59.5l-385 -19l-4 68q225 20 389 20q236 0 285 -196q100 197 352 196q195 0 292 -116.5t97 -374.5v-68h-727q0 -221 69.5 -328.5t241.5 -107.5l373 19l4 -66q-229 -18 -379 -18q-201 0 -293 118 l-77 -32q-190 -86 -422 -86q-260 0 -260 299zM188 281q0 -113 49.5 -173.5t137.5 -60.5q86 0 198.5 24.5t173 45t95.5 35.5q-61 121 -62 397l-377 -37q-113 -10 -164 -65t-51 -166zM856 549h651q0 231 -74.5 329.5t-238.5 98.5q-338 0 -338 -428z" />
<glyph unicode="&#xe7;" horiz-adv-x="894" d="M123 535q0 283 94 395t326 112l245 -20l-4 -66q-164 20 -241 21q-195 0 -269.5 -98.5t-74.5 -343.5q0 -276 67.5 -382t276.5 -106l245 19l5 -66q-172 -18 -250 -18h-25v-99q115 0 164 -30.5t49 -112.5q0 -152 -168 -152l-166 9l4 57q90 -8 160 -8q98 0 98 94q0 86 -98 86 h-110v160q-193 18 -260.5 139t-67.5 410z" />
<glyph unicode="&#xe8;" horiz-adv-x="1038" d="M123 512q0 530 414 530q195 0 292 -116.5t97 -374.5v-68h-727q0 -221 69.5 -328.5t241.5 -107.5l373 19l4 -66q-229 -18 -379 -18q-217 2 -301 132t-84 398zM199 549h651q0 231 -75 329.5t-238 98.5q-338 0 -338 -428zM266 1438l33 63l393 -196l-30 -56z" />
<glyph unicode="&#xe9;" horiz-adv-x="1038" d="M123 512q0 530 414 530q195 0 292 -116.5t97 -374.5v-68h-727q0 -221 69.5 -328.5t241.5 -107.5l373 19l4 -66q-229 -18 -379 -18q-217 2 -301 132t-84 398zM199 549h651q0 231 -75 329.5t-238 98.5q-338 0 -338 -428zM354 1303l394 196l32 -63l-395 -189z" />
<glyph unicode="&#xea;" horiz-adv-x="1038" d="M123 512q0 530 414 530q195 0 292 -116.5t97 -374.5v-68h-727q0 -221 69.5 -328.5t241.5 -107.5l373 19l4 -66q-229 -18 -379 -18q-217 2 -301 132t-84 398zM199 549h651q0 231 -75 329.5t-238 98.5q-338 0 -338 -428zM266 1229l248 270h57l250 -270h-88l-188 205 l-191 -205h-88z" />
<glyph unicode="&#xeb;" horiz-adv-x="1038" d="M123 512q0 530 414 530q195 0 292 -116.5t97 -374.5v-68h-727q0 -221 69.5 -328.5t241.5 -107.5l373 19l4 -66q-229 -18 -379 -18q-217 2 -301 132t-84 398zM199 549h651q0 231 -75 329.5t-238 98.5q-338 0 -338 -428zM299 1307v127h72v-127h-72zM688 1307v127h72v-127 h-72z" />
<glyph unicode="&#xec;" horiz-adv-x="534" d="M55 1436l33 63l393 -196l-30 -56zM231 0v1024h72v-1024h-72z" />
<glyph unicode="&#xed;" horiz-adv-x="534" d="M117 1303l393 196l33 -63l-396 -189zM231 0v1024h72v-1024h-72z" />
<glyph unicode="&#xee;" horiz-adv-x="534" d="M-10 1229l248 270h57l250 -270h-88l-189 205l-190 -205h-88zM231 0v1024h72v-1024h-72z" />
<glyph unicode="&#xef;" horiz-adv-x="534" d="M31 1307v127h71v-127h-71zM231 0v1024h72v-1024h-72zM420 1307v127h72v-127h-72z" />
<glyph unicode="&#xf0;" d="M106 438q0 195 113 313.5t305 118.5q160 0 387 -90q-10 319 -342 523l-243 -164l-41 55l217 147q-123 63 -273 109l27 63q178 -53 311 -129l209 142l41 -56l-182 -124q352 -227 352 -619q0 -412 -101.5 -578.5t-338.5 -166.5q-207 0 -324 119.5t-117 336.5zM180 438 q0 -186 95.5 -286.5t271.5 -100.5q203 0 283.5 141.5t82.5 516.5q-238 92 -385 92q-162 0 -255 -100.5t-93 -262.5z" />
<glyph unicode="&#xf1;" horiz-adv-x="1173" d="M207 0v1024h72v-82q182 100 358 100q205 0 270.5 -103t65.5 -407v-532h-72v528q0 270 -49 359.5t-215 89.5q-178 -2 -358 -103v-874h-72zM305 1368q100 96 168 96q43 0 156.5 -54t144.5 -54q37 0 127 84l19 -62q-86 -88 -150 -88q-43 0 -156.5 55.5t-144.5 55.5 q-43 0 -143 -92z" />
<glyph unicode="&#xf2;" horiz-adv-x="1077" d="M123 535q0 283 95 395t325 112q211 0 311 -118.5t100 -393.5q0 -301 -84 -424.5t-327 -123.5q-250 0 -335 119t-85 434zM199 535q0 -143 11 -226.5t48 -148t104.5 -89t180.5 -24.5q111 0 179.5 27.5t102 94.5t44 146.5t10.5 214.5q0 242 -81 344.5t-255 102.5 q-199 0 -271.5 -93t-72.5 -349zM315 1436l33 63l393 -196l-30 -56z" />
<glyph unicode="&#xf3;" horiz-adv-x="1077" d="M123 535q0 283 95 395t325 112q211 0 311 -118.5t100 -393.5q0 -301 -84 -424.5t-327 -123.5q-250 0 -335 119t-85 434zM199 535q0 -143 11 -226.5t48 -148t104.5 -89t180.5 -24.5q111 0 179.5 27.5t102 94.5t44 146.5t10.5 214.5q0 242 -81 344.5t-255 102.5 q-199 0 -271.5 -93t-72.5 -349zM367 1303l393 196l33 -63l-396 -189z" />
<glyph unicode="&#xf4;" horiz-adv-x="1077" d="M123 535q0 283 95 395t325 112q211 0 311 -118.5t100 -393.5q0 -301 -84 -424.5t-327 -123.5q-250 0 -335 119t-85 434zM199 535q0 -143 11 -226.5t48 -148t104.5 -89t180.5 -24.5q111 0 179.5 27.5t102 94.5t44 146.5t10.5 214.5q0 242 -81 344.5t-255 102.5 q-199 0 -271.5 -93t-72.5 -349zM262 1229l248 270h57l250 -270h-88l-188 205l-191 -205h-88z" />
<glyph unicode="&#xf5;" horiz-adv-x="1077" d="M123 535q0 283 95 395t325 112q211 0 311 -118.5t100 -393.5q0 -301 -84 -424.5t-327 -123.5q-250 0 -335 119t-85 434zM199 535q0 -143 11 -226.5t48 -148t104.5 -89t180.5 -24.5q111 0 179.5 27.5t102 94.5t44 146.5t10.5 214.5q0 242 -81 344.5t-255 102.5 q-199 0 -271.5 -93t-72.5 -349zM233 1368q100 96 168 96q43 0 157 -54t144 -54q37 0 127 84l19 -62q-86 -88 -150 -88q-43 0 -156.5 55.5t-144.5 55.5q-43 0 -143 -92z" />
<glyph unicode="&#xf6;" horiz-adv-x="1077" d="M123 535q0 283 95 395t325 112q211 0 311 -118.5t100 -393.5q0 -301 -84 -424.5t-327 -123.5q-250 0 -335 119t-85 434zM199 535q0 -143 11 -226.5t48 -148t104.5 -89t180.5 -24.5q111 0 179.5 27.5t102 94.5t44 146.5t10.5 214.5q0 242 -81 344.5t-255 102.5 q-199 0 -271.5 -93t-72.5 -349zM299 1307v127h72v-127h-72zM688 1307v127h72v-127h-72z" />
<glyph unicode="&#xf7;" d="M68 684v74h688v-74h-688zM371 285v164h82v-164h-82zM371 989v164h82v-164h-82z" />
<glyph unicode="&#xf8;" horiz-adv-x="1077" d="M123 535q0 283 95 395t325 112q96 0 170 -24l92 221l61 -22l-94 -226q182 -100 182 -461q0 -301 -84 -424.5t-327 -123.5q-102 0 -176 18l-95 -233l-61 20l94 233q-104 49 -143 168.5t-39 346.5zM199 535q0 -201 27.5 -303.5t109.5 -145.5l352 868q-63 23 -145 23 q-199 0 -271.5 -93t-72.5 -349zM391 63q55 -16 152 -16q111 0 179.5 27.5t102 94.5t44 146.5t10.5 214.5q0 297 -134 394z" />
<glyph unicode="&#xf9;" horiz-adv-x="1140" d="M190 492v532h72v-528q0 -270 49 -359.5t215 -89.5q172 0 332 100l4 3v874h72v-1024h-72v82l-49 -28q-31 -17 -120 -44.5t-167 -27.5q-205 0 -270.5 103.5t-65.5 406.5zM303 1436l33 63l393 -196l-31 -56z" />
<glyph unicode="&#xfa;" horiz-adv-x="1140" d="M190 492v532h72v-528q0 -270 49 -359.5t215 -89.5q172 0 332 100l4 3v874h72v-1024h-72v82l-49 -28q-31 -17 -120 -44.5t-167 -27.5q-205 0 -270.5 103.5t-65.5 406.5zM391 1303l393 196l33 -63l-395 -189z" />
<glyph unicode="&#xfb;" horiz-adv-x="1140" d="M190 492v532h72v-528q0 -270 49 -359.5t215 -89.5q172 0 332 100l4 3v874h72v-1024h-72v82l-49 -28q-31 -17 -120 -44.5t-167 -27.5q-205 0 -270.5 103.5t-65.5 406.5zM287 1229l248 270h57l250 -270h-88l-189 205l-190 -205h-88z" />
<glyph unicode="&#xfc;" horiz-adv-x="1140" d="M190 492v532h72v-528q0 -270 49 -359.5t215 -89.5q172 0 332 100l4 3v874h72v-1024h-72v82l-49 -28q-31 -17 -120 -44.5t-167 -27.5q-205 0 -270.5 103.5t-65.5 406.5zM354 1307v127h72v-127h-72zM743 1307v127h72v-127h-72z" />
<glyph unicode="&#xfd;" horiz-adv-x="983" d="M61 1024h76l301 -958h84l303 958h76l-469 -1495h-76l148 471h-125zM332 1303l393 196l33 -63l-396 -189z" />
<glyph unicode="&#xfe;" horiz-adv-x="1101" d="M289 -471v1966h71v-534q170 82 353 81q203 0 275.5 -115.5t72.5 -391.5q0 -301 -96.5 -427t-370.5 -126q-111 0 -234 12v-465h-71zM360 59q160 -12 232 -12q127 0 206 27.5t119.5 93t54 147.5t13.5 215q0 244 -54 345.5t-218 101.5q-82 0 -170 -20.5t-135 -41.5l-48 -20 v-836z" />
<glyph unicode="&#xff;" horiz-adv-x="983" d="M72 1024h75l302 -958h83l304 958h75l-469 -1495h-75l147 471h-125zM250 1307v127h72v-127h-72zM639 1307v127h72v-127h-72z" />
<glyph unicode="&#x100;" horiz-adv-x="1236" d="M72 0l440 1434h217l436 -1430h-73l-138 436h-671l-138 -440h-73zM303 510h631l-260 854h-111zM303 1704v65h588v-65h-588z" />
<glyph unicode="&#x101;" horiz-adv-x="1060" d="M113 281q0 133 66.5 206.5t215.5 87.5l389 41v107q0 131 -56 190.5t-171 59.5q-66 0 -163 -9.5t-161 -17.5l-63 -8l-6 68q229 37 393 36q299 0 299 -319v-588q8 -74 154 -86l-4 -65q-154 0 -211 82q-190 -84 -422 -84q-123 0 -191.5 77t-68.5 222zM188 281 q0 -111 50.5 -172.5t136.5 -61.5q90 0 192.5 20.5t159.5 41.5l57 20v420l-381 -37q-215 -22 -215 -231zM250 1315v65h547v-65h-547z" />
<glyph unicode="&#x102;" horiz-adv-x="1236" d="M72 0l440 1434h217l436 -1430h-73l-138 436h-671l-138 -440h-73zM303 510h631l-260 854h-111zM336 1890h72q0 -82 61 -130t149.5 -48t149.5 48t61 130h72q0 -111 -82 -177t-200.5 -66t-200.5 66t-82 177z" />
<glyph unicode="&#x103;" horiz-adv-x="1060" d="M113 281q0 133 66.5 206.5t215.5 87.5l389 41v107q0 131 -56 190.5t-171 59.5q-66 0 -163 -9.5t-161 -17.5l-63 -8l-6 68q229 37 393 36q299 0 299 -319v-588q8 -74 154 -86l-4 -65q-154 0 -211 82q-190 -84 -422 -84q-123 0 -191.5 77t-68.5 222zM188 281 q0 -111 50.5 -172.5t136.5 -61.5q90 0 192.5 20.5t159.5 41.5l57 20v420l-381 -37q-215 -22 -215 -231zM248 1481h71q0 -86 56.5 -141.5t155 -55.5t154.5 55.5t56 141.5h72q0 -115 -78 -188.5t-205 -73.5t-204.5 73.5t-77.5 188.5z" />
<glyph unicode="&#x104;" horiz-adv-x="1236" d="M72 0l440 1434h217l436 -1430h-24l14 -2q-166 -174 -166 -240q0 -43 26.5 -72.5t69.5 -29.5l115 14l8 -67q-74 -16 -131 -17q-72 0 -118 45.5t-46 122.5q0 41 43 104.5t84 106.5l43 43l7 -2l-136 430h-671l-138 -440h-73zM303 510h631l-260 854h-111z" />
<glyph unicode="&#x105;" horiz-adv-x="1060" d="M113 281q0 133 66.5 206.5t215.5 87.5l389 41v107q0 131 -56 190.5t-171 59.5q-66 0 -163 -9.5t-161 -17.5l-63 -8l-6 68q229 37 393 36q299 0 299 -319v-588q8 -74 154 -86l-4 -65q-23 0 -64 4q-152 -170 -151 -226q0 -43 26.5 -72.5t69.5 -29.5l114 14l9 -67 q-74 -16 -131 -17q-72 0 -118 45.5t-46 122.5q0 84 162 246q-55 20 -82 62q-190 -84 -422 -84q-123 0 -191.5 77t-68.5 222zM188 281q0 -111 50.5 -172.5t136.5 -61.5q90 0 192.5 20.5t159.5 41.5l57 20v420l-381 -37q-215 -22 -215 -231z" />
<glyph unicode="&#x106;" horiz-adv-x="1099" d="M119 711q0 145 11 249.5t43 203t87 157.5t147.5 95t221.5 36q86 0 181 -9t146 -20l52 -10l-7 -72q-207 41 -372 41q-113 0 -193 -32.5t-126 -85t-71.5 -143.5t-33.5 -183t-8 -227.5t8 -227.5t34.5 -180t73.5 -139t126 -82t190 -31q66 0 159 10.5t154 20.5l59 10l7 -69 q-217 -41 -379 -41q-156 0 -257.5 48t-156.5 148.5t-75.5 225.5t-20.5 307zM377 1692l393 196l33 -63l-395 -189z" />
<glyph unicode="&#x107;" horiz-adv-x="894" d="M123 535q0 283 94 395t326 112l245 -20l-4 -66q-164 20 -241 21q-195 0 -269.5 -98.5t-74.5 -343.5q0 -276 67.5 -382t276.5 -106l245 19l5 -66q-172 -18 -250 -18q-250 0 -335 118t-85 435zM281 1303l393 196l33 -63l-396 -189z" />
<glyph unicode="&#x108;" horiz-adv-x="1099" d="M119 711q0 145 11 249.5t43 203t87 157.5t147.5 95t221.5 36q86 0 181 -9t146 -20l52 -10l-7 -72q-207 41 -372 41q-113 0 -193 -32.5t-126 -85t-71.5 -143.5t-33.5 -183t-8 -227.5t8 -227.5t34.5 -180t73.5 -139t126 -82t190 -31q66 0 159 10.5t154 20.5l59 10l7 -69 q-217 -41 -379 -41q-156 0 -257.5 48t-156.5 148.5t-75.5 225.5t-20.5 307zM328 1647l274 256h62l274 -256h-92l-213 196l-211 -196h-94z" />
<glyph unicode="&#x109;" horiz-adv-x="894" d="M123 535q0 283 94 395t326 112l245 -20l-4 -66q-164 20 -241 21q-195 0 -269.5 -98.5t-74.5 -343.5q0 -276 67.5 -382t276.5 -106l245 19l5 -66q-172 -18 -250 -18q-250 0 -335 118t-85 435zM211 1229l248 270h57l250 -270h-88l-189 205l-190 -205h-88z" />
<glyph unicode="&#x10a;" horiz-adv-x="1099" d="M119 711q0 145 11 249.5t43 203t87 157.5t147.5 95t221.5 36q86 0 181 -9t146 -20l52 -10l-7 -72q-207 41 -372 41q-113 0 -193 -32.5t-126 -85t-71.5 -143.5t-33.5 -183t-8 -227.5t8 -227.5t34.5 -180t73.5 -139t126 -82t190 -31q66 0 159 10.5t154 20.5l59 10l7 -69 q-217 -41 -379 -41q-156 0 -257.5 48t-156.5 148.5t-75.5 225.5t-20.5 307zM555 1731v112h72v-112h-72z" />
<glyph unicode="&#x10b;" horiz-adv-x="894" d="M123 535q0 283 94 395t326 112l245 -20l-4 -66q-164 20 -241 21q-195 0 -269.5 -98.5t-74.5 -343.5q0 -276 67.5 -382t276.5 -106l245 19l5 -66q-172 -18 -250 -18q-250 0 -335 118t-85 435zM453 1321v113h71v-113h-71z" />
<glyph unicode="&#x10c;" horiz-adv-x="1099" d="M119 711q0 145 11 249.5t43 203t87 157.5t147.5 95t221.5 36q86 0 181 -9t146 -20l52 -10l-7 -72q-207 41 -372 41q-113 0 -193 -32.5t-126 -85t-71.5 -143.5t-33.5 -183t-8 -227.5t8 -227.5t34.5 -180t73.5 -139t126 -82t190 -31q66 0 159 10.5t154 20.5l59 10l7 -69 q-217 -41 -379 -41q-156 0 -257.5 48t-156.5 148.5t-75.5 225.5t-20.5 307zM291 1913h92l213 -197l211 197h94l-274 -256h-62z" />
<glyph unicode="&#x10d;" horiz-adv-x="894" d="M123 535q0 283 94 395t326 112l245 -20l-4 -66q-164 20 -241 21q-195 0 -269.5 -98.5t-74.5 -343.5q0 -276 67.5 -382t276.5 -106l245 19l5 -66q-172 -18 -250 -18q-250 0 -335 118t-85 435zM211 1499h86l192 -203l191 203h86l-250 -270h-57z" />
<glyph unicode="&#x10e;" horiz-adv-x="1337" d="M211 0v1434h532q131 0 226.5 -57.5t150 -158t79 -220t24.5 -261.5q0 -143 -26 -268t-79 -233.5t-149.5 -172t-225.5 -63.5h-532zM285 70h458q111 0 192 59t125 160.5t64.5 213t20.5 234.5t-20.5 228.5t-64.5 198.5t-125 146.5t-192 53.5h-458v-1294zM307 1913h92 l213 -197l211 197h95l-275 -256h-61z" />
<glyph unicode="&#x10f;" horiz-adv-x="1449" d="M123 498q0 279 94 411.5t336 132.5q117 0 270 -24v416h72v-1434h-72v86q-18 -12 -51 -29.5t-127 -46t-176 -28.5q-49 0 -86 5t-90 33.5t-86 80t-58.5 154t-25.5 243.5zM195 492q0 -145 25.5 -240.5t70.5 -136.5t85 -54.5t93 -13.5q172 2 354 107v798q-213 25 -270 25 q-207 0 -282.5 -117.5t-75.5 -367.5zM1204 989v445h70v-445h-70z" />
<glyph unicode="&#x110;" horiz-adv-x="1337" d="M53 684v70h158v680h532q131 0 226.5 -57.5t150 -158t79 -220t24.5 -261.5q0 -143 -26 -268t-79 -233.5t-149.5 -172t-225.5 -63.5h-532v684h-158zM285 70h458q111 0 192 59t125 160.5t64.5 213t20.5 234.5t-20.5 228.5t-64.5 198.5t-125 146.5t-192 53.5h-458v-610h362 v-70h-362v-614z" />
<glyph unicode="&#x111;" horiz-adv-x="1101" d="M123 498q0 279 94 411.5t336 132.5q117 0 270 -24v256h-354v65h354v95h72v-95h121v-65h-121v-1274h-72v86q-18 -12 -51 -29.5t-127 -46t-176 -28.5q-49 0 -86 5t-90 33.5t-86 80t-58.5 154t-25.5 243.5zM195 492q0 -145 25.5 -240.5t70.5 -136.5t85 -54.5t93 -13.5 q172 2 354 107v798q-213 25 -270 25q-207 0 -282.5 -117.5t-75.5 -367.5z" />
<glyph unicode="&#x112;" horiz-adv-x="1171" d="M211 0v1434h838v-70h-764v-592h641v-70h-641v-632h764v-70h-838zM332 1704v65h588v-65h-588z" />
<glyph unicode="&#x113;" horiz-adv-x="1038" d="M123 512q0 530 414 530q195 0 292 -116.5t97 -374.5v-68h-727q0 -221 69.5 -328.5t241.5 -107.5l373 19l4 -66q-229 -18 -379 -18q-217 2 -301 132t-84 398zM199 549h651q0 231 -75 329.5t-238 98.5q-338 0 -338 -428zM266 1315v65h547v-65h-547z" />
<glyph unicode="&#x114;" horiz-adv-x="1171" d="M211 0v1434h838v-70h-764v-592h641v-70h-641v-632h764v-70h-838zM365 1892h71q0 -82 61.5 -130t149.5 -48t149.5 48t61.5 130h72q0 -111 -82 -177t-201 -66t-200.5 66t-81.5 177z" />
<glyph unicode="&#x115;" horiz-adv-x="1038" d="M123 512q0 530 414 530q195 0 292 -116.5t97 -374.5v-68h-727q0 -221 69.5 -328.5t241.5 -107.5l373 19l4 -66q-229 -18 -379 -18q-217 2 -301 132t-84 398zM199 549h651q0 231 -75 329.5t-238 98.5q-338 0 -338 -428zM254 1481h72q0 -86 56 -141.5t154.5 -55.5t155 55.5 t56.5 141.5h71q0 -115 -77.5 -188.5t-204.5 -73.5t-205 73.5t-78 188.5z" />
<glyph unicode="&#x116;" horiz-adv-x="1171" d="M211 0v1434h838v-70h-764v-592h641v-70h-641v-632h764v-70h-838zM590 1731v112h72v-112h-72z" />
<glyph unicode="&#x117;" horiz-adv-x="1038" d="M123 512q0 530 414 530q195 0 292 -116.5t97 -374.5v-68h-727q0 -221 69.5 -328.5t241.5 -107.5l373 19l4 -66q-229 -18 -379 -18q-217 2 -301 132t-84 398zM199 549h651q0 231 -75 329.5t-238 98.5q-338 0 -338 -428zM483 1321v113h72v-113h-72z" />
<glyph unicode="&#x118;" horiz-adv-x="1171" d="M211 0v1434h838v-70h-764v-592h641v-70h-641v-632h764v-70h-66q-23 -18 -93.5 -107.5t-70.5 -130.5q0 -43 26.5 -72.5t69.5 -29.5l115 14l8 -67q-74 -16 -131 -17q-72 0 -118 45.5t-46 122.5q0 84 158 242h-690z" />
<glyph unicode="&#x119;" horiz-adv-x="1038" d="M123 512q0 530 414 530q195 0 292 -116.5t97 -374.5v-68h-727q0 -221 69.5 -328.5t241.5 -107.5l373 19l4 -66q-14 0 -29 -2q-39 -39 -100.5 -118t-61.5 -118q0 -43 27 -72.5t70 -29.5l114 14l8 -67q-74 -16 -131 -17q-72 0 -117.5 45.5t-45.5 122.5q0 84 149 234 q-201 -10 -262 -10q-217 2 -301 132t-84 398zM199 549h651q0 231 -75 329.5t-238 98.5q-338 0 -338 -428z" />
<glyph unicode="&#x11a;" horiz-adv-x="1171" d="M211 0v1434h838v-70h-764v-592h641v-70h-641v-632h764v-70h-838zM328 1913h92l213 -197l211 197h94l-274 -256h-62z" />
<glyph unicode="&#x11b;" horiz-adv-x="1038" d="M123 512q0 530 414 530q195 0 292 -116.5t97 -374.5v-68h-727q0 -221 69.5 -328.5t241.5 -107.5l373 19l4 -66q-229 -18 -379 -18q-217 2 -301 132t-84 398zM199 549h651q0 231 -75 329.5t-238 98.5q-338 0 -338 -428zM242 1499h86l192 -203l191 203h86l-250 -270h-58z " />
<glyph unicode="&#x11c;" horiz-adv-x="1263" d="M123 711q0 178 23.5 306t81 230.5t165 153.5t266.5 51q215 0 451 -51l-6 -72q-258 53 -445 53q-141 0 -233 -45t-140 -139t-66.5 -207.5t-18.5 -279.5q0 -164 19.5 -278t68.5 -204t141 -134t229 -44q63 0 154.5 10.5t156 20.5t66.5 10v549h-307v70h381v-678 q-289 -51 -451 -51q-301 0 -418.5 182t-117.5 547zM348 1647l275 256h61l274 -256h-92l-213 196l-211 -196h-94z" />
<glyph unicode="&#x11d;" horiz-adv-x="1032" d="M113 -164q0 66 23.5 113t53 73.5t97.5 75.5q-45 29 -45 133q0 14 15 54.5t30 72.5l16 33q-176 57 -176 311q0 342 350 342q49 0 103.5 -6t83.5 -14l30 -6l287 6v-72h-221q82 -76 82 -250q0 -186 -87 -260.5t-286 -74.5q-61 0 -111 8q-47 -117 -47 -144q0 -35 4 -51 t16.5 -30.5t47.5 -19.5t80 -7t133 -2q203 0 282.5 -56.5t79.5 -238.5q0 -166 -103 -240.5t-333 -74.5q-248 0 -326.5 68.5t-78.5 256.5zM186 -162q0 -152 64.5 -207t269.5 -55q190 0 274.5 58.5t84.5 191.5q0 147 -61.5 188t-229.5 41l-248 6q-92 -63 -123 -107t-31 -116z M201 702q0 -143 58 -206.5t210 -63.5q162 0 229.5 59.5t67.5 210.5q0 168 -61.5 222.5t-229.5 54.5q-141 0 -207.5 -61.5t-66.5 -215.5zM240 1229l247 270h58l250 -270h-88l-189 205l-190 -205h-88z" />
<glyph unicode="&#x11e;" horiz-adv-x="1263" d="M123 711q0 178 23.5 306t81 230.5t165 153.5t266.5 51q215 0 451 -51l-6 -72q-258 53 -445 53q-141 0 -233 -45t-140 -139t-66.5 -207.5t-18.5 -279.5q0 -164 19.5 -278t68.5 -204t141 -134t229 -44q63 0 154.5 10.5t156 20.5t66.5 10v549h-307v70h381v-678 q-289 -51 -451 -51q-301 0 -418.5 182t-117.5 547zM389 1890h72q0 -82 61.5 -130t149.5 -48t149.5 48t61.5 130h71q0 -111 -81.5 -177t-200.5 -66t-201 66t-82 177z" />
<glyph unicode="&#x11f;" horiz-adv-x="1032" d="M113 -164q0 66 23.5 113t53 73.5t97.5 75.5q-45 29 -45 133q0 14 15 54.5t30 72.5l16 33q-176 57 -176 311q0 342 350 342q49 0 103.5 -6t83.5 -14l30 -6l287 6v-72h-221q82 -76 82 -250q0 -186 -87 -260.5t-286 -74.5q-61 0 -111 8q-47 -117 -47 -144q0 -35 4 -51 t16.5 -30.5t47.5 -19.5t80 -7t133 -2q203 0 282.5 -56.5t79.5 -238.5q0 -166 -103 -240.5t-333 -74.5q-248 0 -326.5 68.5t-78.5 256.5zM186 -162q0 -152 64.5 -207t269.5 -55q190 0 274.5 58.5t84.5 191.5q0 147 -61.5 188t-229.5 41l-248 6q-92 -63 -123 -107t-31 -116z M201 702q0 -143 58 -206.5t210 -63.5q162 0 229.5 59.5t67.5 210.5q0 168 -61.5 222.5t-229.5 54.5q-141 0 -207.5 -61.5t-66.5 -215.5zM233 1481h72q0 -86 56.5 -141.5t154.5 -55.5t154.5 55.5t56.5 141.5h72q0 -115 -78 -188.5t-205 -73.5t-205 73.5t-78 188.5z" />
<glyph unicode="&#x120;" horiz-adv-x="1263" d="M123 711q0 178 23.5 306t81 230.5t165 153.5t266.5 51q215 0 451 -51l-6 -72q-258 53 -445 53q-141 0 -233 -45t-140 -139t-66.5 -207.5t-18.5 -279.5q0 -164 19.5 -278t68.5 -204t141 -134t229 -44q63 0 154.5 10.5t156 20.5t66.5 10v549h-307v70h381v-678 q-289 -51 -451 -51q-301 0 -418.5 182t-117.5 547zM596 1731v112h72v-112h-72z" />
<glyph unicode="&#x121;" horiz-adv-x="1032" d="M113 -164q0 66 23.5 113t53 73.5t97.5 75.5q-45 29 -45 133q0 14 15 54.5t30 72.5l16 33q-176 57 -176 311q0 342 350 342q49 0 103.5 -6t83.5 -14l30 -6l287 6v-72h-221q82 -76 82 -250q0 -186 -87 -260.5t-286 -74.5q-61 0 -111 8q-47 -117 -47 -144q0 -35 4 -51 t16.5 -30.5t47.5 -19.5t80 -7t133 -2q203 0 282.5 -56.5t79.5 -238.5q0 -166 -103 -240.5t-333 -74.5q-248 0 -326.5 68.5t-78.5 256.5zM186 -162q0 -152 64.5 -207t269.5 -55q190 0 274.5 58.5t84.5 191.5q0 147 -61.5 188t-229.5 41l-248 6q-92 -63 -123 -107t-31 -116z M201 702q0 -143 58 -206.5t210 -63.5q162 0 229.5 59.5t67.5 210.5q0 168 -61.5 222.5t-229.5 54.5q-141 0 -207.5 -61.5t-66.5 -215.5zM479 1321v113h72v-113h-72z" />
<glyph unicode="&#x122;" horiz-adv-x="1263" d="M123 711q0 178 23.5 306t81 230.5t165 153.5t266.5 51q215 0 451 -51l-6 -72q-258 53 -445 53q-141 0 -233 -45t-140 -139t-66.5 -207.5t-18.5 -279.5q0 -164 19.5 -278t68.5 -204t141 -134t229 -44q63 0 154.5 10.5t156 20.5t66.5 10v549h-307v70h381v-678 q-289 -51 -451 -51q-301 0 -418.5 182t-117.5 547zM557 -547l78 387h74l-95 -387h-57z" />
<glyph unicode="&#x123;" horiz-adv-x="1032" d="M113 -164q0 66 23.5 113t53 73.5t97.5 75.5q-45 29 -45 133q0 14 15 54.5t30 72.5l16 33q-176 57 -176 311q0 342 350 342q49 0 103.5 -6t83.5 -14l30 -6l287 6v-72h-221q82 -76 82 -250q0 -186 -87 -260.5t-286 -74.5q-61 0 -111 8q-47 -117 -47 -144q0 -35 4 -51 t16.5 -30.5t47.5 -19.5t80 -7t133 -2q203 0 282.5 -56.5t79.5 -238.5q0 -166 -103 -240.5t-333 -74.5q-248 0 -326.5 68.5t-78.5 256.5zM186 -162q0 -152 64.5 -207t269.5 -55q190 0 274.5 58.5t84.5 191.5q0 147 -61.5 188t-229.5 41l-248 6q-92 -63 -123 -107t-31 -116z M201 702q0 -143 58 -206.5t210 -63.5q162 0 229.5 59.5t67.5 210.5q0 168 -61.5 222.5t-229.5 54.5q-141 0 -207.5 -61.5t-66.5 -215.5zM418 1214l94 388h57l-77 -388h-74z" />
<glyph unicode="&#x124;" horiz-adv-x="1425" d="M211 0v1434h74v-680h856v680h73v-1434h-73v684h-856v-684h-74zM410 1647l274 256h61l275 -256h-92l-213 196l-211 -196h-94z" />
<glyph unicode="&#x125;" horiz-adv-x="1161" d="M207 0v1536h72v-573q180 80 356 79q205 0 270.5 -103t65.5 -407v-532h-72v528q0 270 -49 359.5t-215 89.5q-82 0 -171 -20.5t-136 -41.5l-49 -20v-895h-72zM303 1618l248 270h57l250 -270h-88l-188 205l-191 -205h-88z" />
<glyph unicode="&#x126;" horiz-adv-x="1425" d="M39 1069v66h172v299h74v-299h856v299h73v-299h191v-66h-191v-1069h-73v684h-856v-684h-74v1069h-172zM285 754h856v315h-856v-315z" />
<glyph unicode="&#x127;" horiz-adv-x="1161" d="M61 1253v66h146v217h72v-217h329v-66h-329v-290q180 80 356 79q205 0 270.5 -103t65.5 -407v-532h-72v528q0 270 -49 359.5t-215 89.5q-82 0 -171 -20.5t-136 -41.5l-49 -20v-895h-72v1253h-146z" />
<glyph unicode="&#x128;" horiz-adv-x="462" d="M-94 1757q117 117 184 117q47 0 171 -64.5t155 -64.5q16 0 53 26.5t66 51.5l28 26l23 -57q-106 -113 -170 -113q-47 0 -171 65.5t-155 65.5q-18 0 -59 -28.5t-72 -57.5l-33 -26zM195 0v1434h73v-1434h-73z" />
<glyph unicode="&#x129;" horiz-adv-x="534" d="M-39 1368q100 96 168 96q43 0 156.5 -54t144.5 -54q37 0 127 84l18 -62q-86 -88 -149 -88q-43 0 -156.5 55.5t-144.5 55.5q-43 0 -143 -92zM231 0v1024h72v-1024h-72z" />
<glyph unicode="&#x12a;" horiz-adv-x="462" d="M-61 1724v66h587v-66h-587zM195 0v1434h73v-1434h-73z" />
<glyph unicode="&#x12b;" horiz-adv-x="534" d="M-6 1315v65h547v-65h-547zM231 0v1024h72v-1024h-72z" />
<glyph unicode="&#x12c;" horiz-adv-x="462" d="M-51 1890h71q0 -82 61.5 -130t149.5 -48t149.5 48t61.5 130h72q0 -111 -82 -177t-200.5 -66t-200.5 66t-82 177zM195 0v1434h73v-1434h-73z" />
<glyph unicode="&#x12d;" horiz-adv-x="534" d="M-14 1481h71q0 -86 56.5 -141.5t155 -55.5t154.5 55.5t56 141.5h72q0 -115 -78 -188.5t-205 -73.5t-204.5 73.5t-77.5 188.5zM231 0v1024h72v-1024h-72z" />
<glyph unicode="&#x12e;" horiz-adv-x="462" d="M27 -242q0 84 168 252v1424h73v-1434h-2q-23 -18 -93.5 -107.5t-70.5 -130.5q0 -43 27 -72.5t70 -29.5l114 14l9 -67q-74 -16 -132 -17q-72 0 -117.5 45t-45.5 123z" />
<glyph unicode="&#x12f;" horiz-adv-x="440" d="M14 -242q0 84 168 252v1014h72v-1022h2q-166 -174 -166 -240q0 -43 26.5 -72.5t69.5 -29.5l115 14l8 -67q-74 -16 -131 -17q-72 0 -118 45t-46 123zM182 1321v113h72v-113h-72z" />
<glyph unicode="&#x130;" horiz-adv-x="462" d="M195 0v1434h73v-1434h-73zM195 1731v112h71v-112h-71z" />
<glyph unicode="&#x131;" horiz-adv-x="534" d="M231 0v1024h72v-1024h-72z" />
<glyph unicode="&#x134;" horiz-adv-x="622" d="M45 1647l274 256h62l274 -256h-92l-213 196l-211 -196h-94zM72 -80q74 0 105.5 1t72.5 11.5t53 26.5t27.5 54t18.5 89.5t3 133.5v1200h74q0 -217 1 -609.5t1 -611.5q0 -68 -4 -120t-17.5 -91t-25.5 -64.5t-40 -43t-47.5 -26.5t-63.5 -13t-71.5 -5.5t-86.5 -1.5v70z" />
<glyph unicode="&#x135;" horiz-adv-x="477" d="M-61 -383q176 96 229 171t53 224v1012h72v-1014q0 -174 -64.5 -265t-261.5 -191zM-31 1229l248 270h57l250 -270h-88l-188 205l-191 -205h-88z" />
<glyph unicode="&#x136;" horiz-adv-x="1222" d="M211 0v1434h74v-691h264l450 691h88l-473 -721l506 -713h-94l-473 674h-268v-674h-74zM537 -547l77 387h74l-94 -387h-57z" />
<glyph unicode="&#x137;" horiz-adv-x="989" d="M207 0v1495h72v-897h192l373 426h84l-393 -463l393 -561h-84l-373 526h-192v-526h-72zM399 -547l78 387h74l-94 -387h-58z" />
<glyph unicode="&#x139;" d="M211 0v1434h74v-1364h698v-70h-772zM330 1692l393 196l33 -63l-396 -189z" />
<glyph unicode="&#x13a;" horiz-adv-x="460" d="M18 1712l394 197l32 -64l-395 -188zM195 0v1495h71v-1495h-71z" />
<glyph unicode="&#x13b;" d="M211 0v1434h74v-1364h698v-70h-772zM469 -547l78 387h74l-95 -387h-57z" />
<glyph unicode="&#x13c;" horiz-adv-x="460" d="M111 -547l77 387h74l-94 -387h-57zM195 0v1495h71v-1495h-71z" />
<glyph unicode="&#x13d;" d="M211 0v1434h74v-1364h698v-70h-772zM821 989v445h70v-445h-70z" />
<glyph unicode="&#x13e;" horiz-adv-x="808" d="M195 0v1495h71v-1495h-71zM563 989v445h70v-445h-70z" />
<glyph unicode="&#x141;" d="M8 590l203 141v703h74v-652l428 301l41 -55l-469 -330v-628h698v-70h-772v647l-162 -112z" />
<glyph unicode="&#x142;" horiz-adv-x="460" d="M-4 598l199 139v758h71v-709l166 117l39 -55l-205 -143v-705h-71v653l-160 -110z" />
<glyph unicode="&#x143;" horiz-adv-x="1406" d="M211 0v1434h174l682 -1364h55v1364h74v-1434h-174l-684 1364h-53v-1364h-74zM489 1692l394 196l32 -63l-395 -189z" />
<glyph unicode="&#x144;" horiz-adv-x="1173" d="M207 0v1024h72v-82q182 100 358 100q205 0 270.5 -103t65.5 -407v-532h-72v528q0 270 -49 359.5t-215 89.5q-178 -2 -358 -103v-874h-72zM373 1303l393 196l33 -63l-396 -189z" />
<glyph unicode="&#x145;" horiz-adv-x="1406" d="M211 0v1434h174l682 -1364h55v1364h74v-1434h-174l-684 1364h-53v-1364h-74zM627 -547l78 387h73l-94 -387h-57z" />
<glyph unicode="&#x146;" horiz-adv-x="1173" d="M207 0v1024h72v-82q182 100 358 100q205 0 270.5 -103t65.5 -407v-532h-72v528q0 270 -49 359.5t-215 89.5q-178 -2 -358 -103v-874h-72zM494 -547l77 387h74l-94 -387h-57z" />
<glyph unicode="&#x147;" horiz-adv-x="1406" d="M211 0v1434h174l682 -1364h55v1364h74v-1434h-174l-684 1364h-53v-1364h-74zM399 1903h93l213 -197l210 197h95l-275 -256h-61z" />
<glyph unicode="&#x148;" horiz-adv-x="1173" d="M207 0v1024h72v-82q182 100 358 100q205 0 270.5 -103t65.5 -407v-532h-72v528q0 270 -49 359.5t-215 89.5q-178 -2 -358 -103v-874h-72zM309 1499h86l193 -203l190 203h86l-250 -270h-57z" />
<glyph unicode="&#x14a;" horiz-adv-x="1406" d="M211 0v1434h174l682 -1364h55v1364h74v-203q0 -217 1 -609.5t1 -611.5q0 -68 -4 -120t-17.5 -91t-25.5 -64.5t-40 -43t-47.5 -26.5t-63.5 -13t-71.5 -5t-86.5 -1v69q72 0 102.5 1t70.5 10.5t53 25t29.5 49t19.5 79.5t5 120h-100l-684 1364h-53v-1364h-74z" />
<glyph unicode="&#x14b;" horiz-adv-x="1173" d="M207 0v1024h72v-82q184 100 360 100q203 0 269.5 -108.5t66.5 -401.5v-546q0 -174 -59.5 -261t-245.5 -196l-29 63q162 96 212 171t50 225v540q0 258 -50 353.5t-214 95.5q-178 -2 -360 -103v-874h-72z" />
<glyph unicode="&#x14c;" horiz-adv-x="1343" d="M123 711q0 377 118.5 559t430 182t430.5 -181t119 -560q0 -391 -116 -560t-433 -169q-164 0 -272.5 45t-169 142t-84 225.5t-23.5 316.5zM201 711q0 -174 18.5 -287t68.5 -202t144 -130t240 -41q147 0 240.5 38t143.5 125t68.5 201.5t18.5 295.5q0 344 -99.5 507.5 t-371.5 163.5q-143 0 -237.5 -43t-144.5 -134t-69.5 -206.5t-19.5 -287.5zM371 1724v66h587v-66h-587z" />
<glyph unicode="&#x14d;" horiz-adv-x="1077" d="M123 535q0 283 95 395t325 112q211 0 311 -118.5t100 -393.5q0 -301 -84 -424.5t-327 -123.5q-250 0 -335 119t-85 434zM199 535q0 -143 11 -226.5t48 -148t104.5 -89t180.5 -24.5q111 0 179.5 27.5t102 94.5t44 146.5t10.5 214.5q0 242 -81 344.5t-255 102.5 q-199 0 -271.5 -93t-72.5 -349zM264 1315v65h547v-65h-547z" />
<glyph unicode="&#x14e;" horiz-adv-x="1343" d="M123 711q0 377 118.5 559t430 182t430.5 -181t119 -560q0 -391 -116 -560t-433 -169q-164 0 -272.5 45t-169 142t-84 225.5t-23.5 316.5zM201 711q0 -174 18.5 -287t68.5 -202t144 -130t240 -41q147 0 240.5 38t143.5 125t68.5 201.5t18.5 295.5q0 344 -99.5 507.5 t-371.5 163.5q-143 0 -237.5 -43t-144.5 -134t-69.5 -206.5t-19.5 -287.5zM389 1890h72q0 -82 61.5 -130t149.5 -48t149.5 48t61.5 130h71q0 -111 -81.5 -177t-200.5 -66t-201 66t-82 177z" />
<glyph unicode="&#x14f;" horiz-adv-x="1077" d="M123 535q0 283 95 395t325 112q211 0 311 -118.5t100 -393.5q0 -301 -84 -424.5t-327 -123.5q-250 0 -335 119t-85 434zM199 535q0 -143 11 -226.5t48 -148t104.5 -89t180.5 -24.5q111 0 179.5 27.5t102 94.5t44 146.5t10.5 214.5q0 242 -81 344.5t-255 102.5 q-199 0 -271.5 -93t-72.5 -349zM256 1481h72q0 -86 56 -141.5t154.5 -55.5t155 55.5t56.5 141.5h71q0 -115 -77.5 -188.5t-204.5 -73.5t-205 73.5t-78 188.5z" />
<glyph unicode="&#x150;" horiz-adv-x="1343" d="M123 711q0 377 118.5 559t430 182t430.5 -181t119 -560q0 -391 -116 -560t-433 -169q-164 0 -272.5 45t-169 142t-84 225.5t-23.5 316.5zM201 711q0 -174 18.5 -287t68.5 -202t144 -130t240 -41q147 0 240.5 38t143.5 125t68.5 201.5t18.5 295.5q0 344 -99.5 507.5 t-371.5 163.5q-143 0 -237.5 -43t-144.5 -134t-69.5 -206.5t-19.5 -287.5zM274 1675l394 180l28 -61l-391 -178zM666 1675l391 178l30 -59l-393 -180z" />
<glyph unicode="&#x151;" horiz-adv-x="1077" d="M123 535q0 283 95 395t325 112q211 0 311 -118.5t100 -393.5q0 -301 -84 -424.5t-327 -123.5q-250 0 -335 119t-85 434zM199 535q0 -143 11 -226.5t48 -148t104.5 -89t180.5 -24.5q111 0 179.5 27.5t102 94.5t44 146.5t10.5 214.5q0 242 -81 344.5t-255 102.5 q-199 0 -271.5 -93t-72.5 -349zM246 1274l334 213l36 -55l-333 -213zM625 1274l333 213l37 -55l-333 -213z" />
<glyph unicode="&#x152;" horiz-adv-x="1933" d="M123 706.5q0 186.5 24.5 316.5t85 231.5t169 149.5t270.5 48q209 0 321 -18h817v-74h-743v-586h621v-74h-621v-626h743v-76h-815q-172 -16 -323 -16q-164 0 -272.5 45t-169 142t-84 224t-23.5 313.5zM201 711q0 -174 18.5 -287t68.5 -202t144 -130t240 -41q106 0 321 19 v1288q-287 25 -321 24q-143 0 -237.5 -43t-144.5 -134t-69.5 -206.5t-19.5 -287.5z" />
<glyph unicode="&#x153;" horiz-adv-x="1794" d="M123 535q0 283 95 395t325 112q299 0 377 -245q90 246 372 245q195 0 292 -116.5t97 -374.5v-68h-727q0 -221 70 -328.5t242 -107.5l372 19l4 -66q-229 -18 -378 -18q-266 0 -346 219q-37 -115 -125 -167t-250 -52q-250 0 -335 119t-85 434zM199 535q0 -143 11 -226.5 t48 -148t104.5 -89t180.5 -24.5q111 0 179.5 27.5t102 94.5t44 146.5t10.5 214.5q0 242 -81 344.5t-255 102.5q-199 0 -271.5 -93t-72.5 -349zM954 549h652q0 231 -75 329.5t-239 98.5q-338 0 -338 -428z" />
<glyph unicode="&#x154;" horiz-adv-x="1290" d="M211 0v1434h514q217 0 321.5 -98.5t104.5 -311.5q0 -365 -297 -420l324 -604h-84l-320 594h-489v-594h-74zM285 664h440q190 0 269 92t79 268q0 178 -84 259t-264 81h-440v-700zM432 1692l393 196l33 -63l-395 -189z" />
<glyph unicode="&#x155;" horiz-adv-x="724" d="M190 1303l394 196l32 -63l-395 -189zM207 0v1024h72v-160q20 16 56 40t142.5 73t206.5 67v-69q-197 -39 -405 -178v-797h-72z" />
<glyph unicode="&#x156;" horiz-adv-x="1290" d="M211 0v1434h514q217 0 321.5 -98.5t104.5 -311.5q0 -365 -297 -420l324 -604h-84l-320 594h-489v-594h-74zM285 664h440q190 0 269 92t79 268q0 178 -84 259t-264 81h-440v-700zM571 -547l78 387h74l-94 -387h-58z" />
<glyph unicode="&#x157;" horiz-adv-x="724" d="M125 -547l78 387h73l-94 -387h-57zM207 0v1024h72v-160q20 16 56 40t142.5 73t206.5 67v-69q-197 -39 -405 -178v-797h-72z" />
<glyph unicode="&#x158;" horiz-adv-x="1290" d="M211 0v1434h514q217 0 321.5 -98.5t104.5 -311.5q0 -365 -297 -420l324 -604h-84l-320 594h-489v-594h-74zM285 664h440q190 0 269 92t79 268q0 178 -84 259t-264 81h-440v-700zM342 1903h92l213 -197l211 197h94l-274 -256h-62z" />
<glyph unicode="&#x159;" horiz-adv-x="724" d="M127 1499h86l193 -203l190 203h86l-250 -270h-57zM207 0v1024h72v-160q20 16 56 40t142.5 73t206.5 67v-69q-197 -39 -405 -178v-797h-72z" />
<glyph unicode="&#x15a;" horiz-adv-x="1097" d="M109 1096q0 360 442 360l407 -33l-8 -71q-281 35 -399 34q-365 0 -365 -286q0 -61 9.5 -107.5t34 -78t51 -53t78 -37t94.5 -24.5t118 -22q223 -35 320.5 -107.5t97.5 -254.5q0 -231 -107.5 -330.5t-326.5 -99.5q-68 0 -177.5 8t-184.5 16l-76 8l8 72q283 -35 428 -35 q180 0 269 84t89 271q0 150 -77.5 207t-280.5 88q-123 18 -191.5 37.5t-133 60.5t-92 111.5t-27.5 181.5zM336 1692l393 196l33 -63l-395 -189z" />
<glyph unicode="&#x15b;" horiz-adv-x="989" d="M123 768q0 102 55 166.5t129 86t166 21.5q70 0 158 -7t141 -15l53 -8l-4 -68q-209 33 -348 33q-274 0 -274 -205q0 -96 57 -136t233 -67q217 -35 295 -86t78 -188q0 -172 -98 -242.5t-291 -70.5q-51 0 -136 8t-144 16l-58 8l8 68q221 -35 326 -35q158 0 237.5 51.5 t79.5 190.5q0 106 -62 145t-255 68q-195 31 -270.5 81t-75.5 185zM283 1303l393 196l33 -63l-396 -189z" />
<glyph unicode="&#x15c;" horiz-adv-x="1097" d="M109 1096q0 360 442 360l407 -33l-8 -71q-281 35 -399 34q-365 0 -365 -286q0 -61 9.5 -107.5t34 -78t51 -53t78 -37t94.5 -24.5t118 -22q223 -35 320.5 -107.5t97.5 -254.5q0 -231 -107.5 -330.5t-326.5 -99.5q-68 0 -177.5 8t-184.5 16l-76 8l8 72q283 -35 428 -35 q180 0 269 84t89 271q0 150 -77.5 207t-280.5 88q-123 18 -191.5 37.5t-133 60.5t-92 111.5t-27.5 181.5zM246 1647l274 256h62l274 -256h-92l-213 196l-211 -196h-94z" />
<glyph unicode="&#x15d;" horiz-adv-x="989" d="M123 768q0 102 55 166.5t129 86t166 21.5q70 0 158 -7t141 -15l53 -8l-4 -68q-209 33 -348 33q-274 0 -274 -205q0 -96 57 -136t233 -67q217 -35 295 -86t78 -188q0 -172 -98 -242.5t-291 -70.5q-51 0 -136 8t-144 16l-58 8l8 68q221 -35 326 -35q158 0 237.5 51.5 t79.5 190.5q0 106 -62 145t-255 68q-195 31 -270.5 81t-75.5 185zM217 1229l248 270h57l250 -270h-88l-188 205l-191 -205h-88z" />
<glyph unicode="&#x15e;" horiz-adv-x="1097" d="M109 1096q0 360 442 360l407 -33l-8 -71q-281 35 -399 34q-365 0 -365 -286q0 -61 9.5 -107.5t34 -78t51 -53t78 -37t94.5 -24.5t118 -22q223 -35 320.5 -107.5t97.5 -254.5q0 -223 -99 -322.5t-304 -105.5v-105q115 0 164 -30.5t49 -112.5q0 -152 -168 -152l-166 9l4 57 q90 -8 160 -8q98 0 98 94q0 86 -98 86h-111v160q-158 4 -401 32l8 72q283 -35 428 -35q180 0 269 84t89 271q0 150 -77.5 207t-280.5 88q-123 18 -191.5 37.5t-133 60.5t-92 111.5t-27.5 181.5z" />
<glyph unicode="&#x15f;" horiz-adv-x="989" d="M123 768q0 102 55 166.5t129 86t166 21.5q70 0 158 -7t141 -15l53 -8l-4 -68q-209 33 -348 33q-274 0 -274 -205q0 -96 57 -136t233 -67q217 -35 295 -86t78 -188q0 -164 -90 -236.5t-266 -76.5v-99q115 0 164 -30.5t49 -112.5q0 -152 -168 -152l-166 9l4 57 q90 -8 160 -8q98 0 98 94q0 86 -98 86h-111v158q-53 2 -129 9t-125 15l-49 6l8 68q221 -35 326 -35q158 0 237.5 51.5t79.5 190.5q0 106 -62 145t-255 68q-195 31 -270.5 81t-75.5 185z" />
<glyph unicode="&#x160;" horiz-adv-x="1097" d="M109 1096q0 360 442 360l407 -33l-8 -71q-281 35 -399 34q-365 0 -365 -286q0 -61 9.5 -107.5t34 -78t51 -53t78 -37t94.5 -24.5t118 -22q223 -35 320.5 -107.5t97.5 -254.5q0 -231 -107.5 -330.5t-326.5 -99.5q-68 0 -177.5 8t-184.5 16l-76 8l8 72q283 -35 428 -35 q180 0 269 84t89 271q0 150 -77.5 207t-280.5 88q-123 18 -191.5 37.5t-133 60.5t-92 111.5t-27.5 181.5zM252 1913h92l213 -197l211 197h94l-274 -256h-62z" />
<glyph unicode="&#x161;" horiz-adv-x="989" d="M123 768q0 102 55 166.5t129 86t166 21.5q70 0 158 -7t141 -15l53 -8l-4 -68q-209 33 -348 33q-274 0 -274 -205q0 -96 57 -136t233 -67q217 -35 295 -86t78 -188q0 -172 -98 -242.5t-291 -70.5q-51 0 -136 8t-144 16l-58 8l8 68q221 -35 326 -35q158 0 237.5 51.5 t79.5 190.5q0 106 -62 145t-255 68q-195 31 -270.5 81t-75.5 185zM231 1499h86l193 -203l190 203h86l-249 -270h-58z" />
<glyph unicode="&#x162;" horiz-adv-x="1024" d="M0 1364v70h1024v-70h-473v-1364h-74v1364h-477zM434 -547l78 387h74l-94 -387h-58z" />
<glyph unicode="&#x163;" horiz-adv-x="761" d="M72 958v66h161v334h72v-334h373v-66h-373v-536q0 -236 34 -306.5t155 -70.5l200 16l6 -65q-135 -16 -206 -16q-145 0 -203 74.5t-58 289.5v614h-161zM303 -547l78 387h74l-95 -387h-57z" />
<glyph unicode="&#x164;" horiz-adv-x="1024" d="M0 1364v70h1024v-70h-473v-1364h-74v1364h-477zM209 1903h92l213 -197l211 197h94l-274 -256h-62z" />
<glyph unicode="&#x165;" horiz-adv-x="1110" d="M72 958v66h161v334h72v-334h373v-66h-373v-536q0 -236 34 -306.5t155 -70.5l200 16l6 -65q-135 -16 -206 -16q-145 0 -203 74.5t-58 289.5v614h-161zM864 989v445h70v-445h-70z" />
<glyph unicode="&#x166;" horiz-adv-x="1024" d="M0 1364v70h1024v-70h-473v-619h385v-65h-385v-680h-74v680h-360v65h360v619h-477z" />
<glyph unicode="&#x167;" horiz-adv-x="761" d="M72 958v66h161v334h72v-334h373v-66h-373v-376h-72v376h-161zM88 516v66h145v-66h-145zM233 344v172h72v-94q0 -236 34 -306.5t155 -70.5l200 16l6 -65q-135 -16 -206 -16q-145 0 -203 74.5t-58 289.5zM305 516v66h330v-66h-330z" />
<glyph unicode="&#x168;" horiz-adv-x="1314" d="M184 401v1033h74v-1033q0 -186 100.5 -268t288.5 -82q203 0 306.5 81t103.5 269v1033h73v-1033q0 -223 -121.5 -321t-361.5 -98q-225 0 -344 98t-119 321zM330 1757q117 117 184 117q47 0 171 -64.5t155 -64.5q16 0 53 26.5t65 51.5l29 26l23 -57q-106 -113 -170 -113 q-47 0 -171 65.5t-155 65.5q-18 0 -59 -28.5t-74 -57.5l-31 -26z" />
<glyph unicode="&#x169;" horiz-adv-x="1140" d="M190 492v532h72v-528q0 -270 49 -359.5t215 -89.5q172 0 332 100l4 3v874h72v-1024h-72v82l-49 -28q-31 -17 -120 -44.5t-167 -27.5q-205 0 -270.5 103.5t-65.5 406.5zM264 1368q100 96 168 96q43 0 156.5 -54t144.5 -54q37 0 127 84l19 -62q-86 -88 -150 -88 q-43 0 -156.5 55.5t-144.5 55.5q-43 0 -143 -92z" />
<glyph unicode="&#x16a;" horiz-adv-x="1314" d="M184 401v1033h74v-1033q0 -186 100.5 -268t288.5 -82q203 0 306.5 81t103.5 269v1033h73v-1033q0 -223 -121.5 -321t-361.5 -98q-225 0 -344 98t-119 321zM362 1724v66h588v-66h-588z" />
<glyph unicode="&#x16b;" horiz-adv-x="1140" d="M190 492v532h72v-528q0 -270 49 -359.5t215 -89.5q172 0 332 100l4 3v874h72v-1024h-72v82l-49 -28q-31 -17 -120 -44.5t-167 -27.5q-205 0 -270.5 103.5t-65.5 406.5zM297 1315v65h547v-65h-547z" />
<glyph unicode="&#x16c;" horiz-adv-x="1314" d="M184 401v1033h74v-1033q0 -186 100.5 -268t288.5 -82q203 0 306.5 81t103.5 269v1033h73v-1033q0 -223 -121.5 -321t-361.5 -98q-225 0 -344 98t-119 321zM375 1890h71q0 -82 61.5 -130t149.5 -48t149.5 48t61.5 130h72q0 -111 -82 -177t-200.5 -66t-200.5 66t-82 177z " />
<glyph unicode="&#x16d;" horiz-adv-x="1140" d="M190 492v532h72v-528q0 -270 49 -359.5t215 -89.5q172 0 332 100l4 3v874h72v-1024h-72v82l-49 -28q-31 -17 -120 -44.5t-167 -27.5q-205 0 -270.5 103.5t-65.5 406.5zM287 1481h71q0 -86 56.5 -141.5t155 -55.5t154.5 55.5t56 141.5h72q0 -115 -78 -188.5t-205 -73.5 t-204.5 73.5t-77.5 188.5z" />
<glyph unicode="&#x16e;" horiz-adv-x="1314" d="M184 401v1033h74v-1033q0 -186 100.5 -268t288.5 -82q203 0 306.5 81t103.5 269v1033h73v-1033q0 -223 -121.5 -321t-361.5 -98q-225 0 -344 98t-119 321zM459 1741q0 88 54 138t144.5 50t144.5 -50t54 -138t-54 -138.5t-144.5 -50.5t-144.5 50.5t-54 138.5zM526 1740.5 q0 -61.5 35 -94t96.5 -32.5t96 32.5t34.5 94t-34.5 94.5t-96 33t-96.5 -33t-35 -94.5z" />
<glyph unicode="&#x16f;" horiz-adv-x="1140" d="M190 492v532h72v-528q0 -270 49 -359.5t215 -89.5q172 0 332 100l4 3v874h72v-1024h-72v82l-49 -28q-31 -17 -120 -44.5t-167 -27.5q-205 0 -270.5 103.5t-65.5 406.5zM391 1331q0 82 57.5 138.5t139.5 56.5t137 -56.5t55 -138.5t-55 -138t-137 -56q-84 0 -140.5 56 t-56.5 138zM461 1331q0 -53 37 -92t90 -39q51 0 88 39t37 92t-37 91t-88 38q-53 0 -90 -38t-37 -91z" />
<glyph unicode="&#x170;" horiz-adv-x="1314" d="M184 401v1033h74v-1033q0 -186 100.5 -268t288.5 -82q203 0 306.5 81t103.5 269v1033h73v-1033q0 -223 -121.5 -321t-361.5 -98q-225 0 -344 98t-119 321zM322 1620l393 180l28 -61l-391 -178zM713 1620l391 178l31 -59l-394 -180z" />
<glyph unicode="&#x171;" horiz-adv-x="1140" d="M190 492v532h72v-528q0 -270 49 -359.5t215 -89.5q172 0 332 100l4 3v874h72v-1024h-72v82l-49 -28q-31 -17 -120 -44.5t-167 -27.5q-205 0 -270.5 103.5t-65.5 406.5zM279 1274l333 213l37 -55l-334 -213zM657 1274l334 213l37 -55l-334 -213z" />
<glyph unicode="&#x172;" horiz-adv-x="1314" d="M184 401v1033h74v-1033q0 -186 100.5 -268t288.5 -82q203 0 306.5 81t103.5 269v1033h73v-1033q0 -340 -305 -403q-39 -39 -100 -118t-61 -118q0 -43 26.5 -72.5t69.5 -29.5l114 14l9 -67q-74 -16 -131 -17q-72 0 -118 45.5t-46 122.5q0 80 141 228q-53 -4 -82 -4 q-225 0 -344 98t-119 321z" />
<glyph unicode="&#x173;" horiz-adv-x="1140" d="M190 492v532h72v-528q0 -270 49 -359.5t215 -89.5q172 0 332 100l4 3v874h72v-1022l-70 10l-2 -2v72l-49 -28q-31 -17 -120 -44.5t-167 -27.5q-205 0 -270.5 103.5t-65.5 406.5zM694 -242q0 84 168 252v-10h72q-23 -18 -93.5 -107.5t-70.5 -130.5q0 -43 26.5 -72.5 t69.5 -29.5l115 14l8 -67q-74 -16 -131 -17q-72 0 -118 45t-46 123zM934 0v2h2z" />
<glyph unicode="&#x174;" horiz-adv-x="1785" d="M92 1434h72l293 -1364h78l317 1343h82l328 -1343h77l283 1364h72l-295 -1434h-197l-309 1317l-299 -1317h-197zM588 1647l274 256h62l274 -256h-92l-213 196l-211 -196h-94z" />
<glyph unicode="&#x175;" horiz-adv-x="1558" d="M78 1024h76l260 -958h22l303 938h80l301 -938h23l262 958h76l-281 -1024h-139l-283 918l-284 -918h-140zM502 1229l248 270h57l250 -270h-88l-189 205l-190 -205h-88z" />
<glyph unicode="&#x176;" horiz-adv-x="1105" d="M51 1434h84l420 -736l414 736h86l-463 -818v-616h-74v616zM250 1647l274 256h62l274 -256h-92l-213 196l-211 -196h-94z" />
<glyph unicode="&#x177;" horiz-adv-x="983" d="M72 1024h75l302 -958h83l304 958h75l-469 -1495h-75l147 471h-125zM215 1229l248 270h57l250 -270h-88l-188 205l-191 -205h-88z" />
<glyph unicode="&#x178;" horiz-adv-x="1105" d="M51 1434h84l420 -736l414 736h86l-463 -818v-616h-74v616zM305 1716v127h72v-127h-72zM707 1716v127h71v-127h-71z" />
<glyph unicode="&#x179;" horiz-adv-x="1167" d="M123 -2v141l846 1176v49h-846v70h921v-144l-845 -1177v-45h845v-70h-921zM371 1692l393 196l33 -63l-396 -189z" />
<glyph unicode="&#x17a;" horiz-adv-x="985" d="M113 0v66l671 892h-671v66h759v-66l-671 -892h671v-66h-759zM281 1303l393 196l33 -63l-396 -189z" />
<glyph unicode="&#x17b;" horiz-adv-x="1167" d="M123 -2v141l846 1176v49h-846v70h921v-144l-845 -1177v-45h845v-70h-921zM547 1731v112h71v-112h-71z" />
<glyph unicode="&#x17c;" horiz-adv-x="985" d="M113 0v66l671 892h-671v66h759v-66l-671 -892h671v-66h-759zM457 1321v113h71v-113h-71z" />
<glyph unicode="&#x17d;" horiz-adv-x="1167" d="M123 -2v141l846 1176v49h-846v70h921v-144l-845 -1177v-45h845v-70h-921zM272 1913h93l213 -197l210 197h95l-275 -256h-61z" />
<glyph unicode="&#x17e;" horiz-adv-x="985" d="M113 0v66l671 892h-671v66h759v-66l-671 -892h671v-66h-759zM195 1499h86l192 -203l191 203h86l-250 -270h-58z" />
<glyph unicode="&#x192;" d="M143 -496l4 68q127 -6 185 -6q92 0 140 68.5t48 230.5v856h-141v65h141v152q0 203 40 303t142 127q41 10 78 10l191 -6l-4 -65q-125 4 -187 4q-188 0 -188 -299v-226h332v-65h-332v-856q0 -199 -64.5 -283t-195.5 -84z" />
<glyph unicode="&#x1fa;" horiz-adv-x="1236" d="M72 0l428 1395q-84 49 -84 161q0 88 54 138.5t144.5 50.5t144.5 -50t54 -139q0 -102 -76 -155l428 -1397h-73l-138 436h-671l-138 -440h-73zM303 510h631l-260 854h-111zM406 1876l393 197l32 -64l-395 -188zM483 1556q0 -104 90 -122h80q92 20 92 122q0 61 -34.5 94 t-96 33t-96.5 -33t-35 -94z" />
<glyph unicode="&#x1fb;" horiz-adv-x="1060" d="M113 281q0 133 66.5 206.5t215.5 87.5l389 41v107q0 131 -56 190.5t-171 59.5q-66 0 -163 -9.5t-161 -17.5l-63 -8l-6 68q229 37 393 36q299 0 299 -319v-588q8 -74 154 -86l-4 -65q-154 0 -211 82q-190 -84 -422 -84q-123 0 -191.5 77t-68.5 222zM188 281 q0 -111 50.5 -172.5t136.5 -61.5q90 0 192.5 20.5t159.5 41.5l57 20v420l-381 -37q-215 -22 -215 -231zM313 1331q0 82 57.5 138.5t139.5 56.5t137 -56.5t55 -138.5t-55 -138t-137 -56q-84 0 -140.5 56t-56.5 138zM317 1651l394 196l32 -63l-395 -189zM383 1331 q0 -53 37 -92t90 -39q51 0 88 39t37 92t-37 91t-88 38q-53 0 -90 -38t-37 -91z" />
<glyph unicode="&#x1fc;" horiz-adv-x="1734" d="M72 0l514 1434h1130v-70h-764v-590h641v-69h-641v-635h764v-70h-837v440h-566l-159 -440h-82zM338 510h541v854h-236zM715 1692l393 196l33 -63l-396 -189z" />
<glyph unicode="&#x1fd;" horiz-adv-x="1695" d="M113 281q0 164 79.5 220t299.5 85l292 30v107q0 131 -56 190.5t-171 59.5l-385 -19l-4 68q225 20 389 20q236 0 285 -196q100 197 352 196q195 0 292 -116.5t97 -374.5v-68h-727q0 -221 69.5 -328.5t241.5 -107.5l373 19l4 -66q-229 -18 -379 -18q-201 0 -293 118 l-77 -32q-190 -86 -422 -86q-260 0 -260 299zM188 281q0 -113 49.5 -173.5t137.5 -60.5q86 0 198.5 24.5t173 45t95.5 35.5q-61 121 -62 397l-377 -37q-113 -10 -164 -65t-51 -166zM655 1303l394 196l32 -63l-395 -189zM856 549h651q0 231 -74.5 329.5t-238.5 98.5 q-338 0 -338 -428z" />
<glyph unicode="&#x1fe;" horiz-adv-x="1343" d="M123 711q0 377 118.5 559t430.5 182q168 0 286 -57l107 227l68 -29l-113 -237q111 -86 156 -244t45 -401q0 -391 -116 -560t-433 -169q-162 0 -275 47l-118 -256l-68 26l123 264q-117 78 -164 236t-47 412zM201 711q0 -229 35.5 -368.5t130.5 -211.5l559 1196 q-98 55 -254 55q-143 0 -237.5 -43t-144.5 -134t-69.5 -206.5t-19.5 -287.5zM428 94q96 -43 243.5 -43t241 38t143.5 125t68.5 201.5t18.5 295.5q0 430 -156 573zM451 1692l393 196l33 -63l-396 -189z" />
<glyph unicode="&#x1ff;" horiz-adv-x="1077" d="M123 535q0 283 95 395t325 112q96 0 170 -24l92 221l61 -22l-94 -226q182 -100 182 -461q0 -301 -84 -424.5t-327 -123.5q-102 0 -176 18l-95 -233l-61 20l94 233q-104 49 -143 168.5t-39 346.5zM199 535q0 -201 27.5 -303.5t109.5 -145.5l352 868q-63 23 -145 23 q-199 0 -271.5 -93t-72.5 -349zM326 1303l393 196l33 -63l-396 -189zM391 63q55 -16 152 -16q111 0 179.5 27.5t102 94.5t44 146.5t10.5 214.5q0 297 -134 394z" />
<glyph unicode="&#x218;" horiz-adv-x="1097" d="M109 1096q0 360 442 360l407 -33l-8 -71q-281 35 -399 34q-365 0 -365 -286q0 -61 9.5 -107.5t34 -78t51 -53t78 -37t94.5 -24.5t118 -22q223 -35 320.5 -107.5t97.5 -254.5q0 -231 -107.5 -330.5t-326.5 -99.5q-68 0 -177.5 8t-184.5 16l-76 8l8 72q283 -35 428 -35 q180 0 269 84t89 271q0 150 -77.5 207t-280.5 88q-123 18 -191.5 37.5t-133 60.5t-92 111.5t-27.5 181.5zM475 -547l78 387h74l-95 -387h-57z" />
<glyph unicode="&#x219;" horiz-adv-x="989" d="M123 768q0 102 55 166.5t129 86t166 21.5q70 0 158 -7t141 -15l53 -8l-4 -68q-209 33 -348 33q-274 0 -274 -205q0 -96 57 -136t233 -67q217 -35 295 -86t78 -188q0 -172 -98 -242.5t-291 -70.5q-51 0 -136 8t-144 16l-58 8l8 68q221 -35 326 -35q158 0 237.5 51.5 t79.5 190.5q0 106 -62 145t-255 68q-195 31 -270.5 81t-75.5 185zM414 -547l78 387h73l-94 -387h-57z" />
<glyph unicode="&#x2c6;" horiz-adv-x="440" d="M-31 1229l248 270h57l250 -270h-88l-188 205l-191 -205h-88z" />
<glyph unicode="&#x2c7;" horiz-adv-x="440" d="M-31 1499h86l193 -203l190 203h86l-250 -270h-57z" />
<glyph unicode="&#x2d8;" horiz-adv-x="440" d="M-31 1481h72q0 -86 56.5 -141.5t154.5 -55.5t154.5 55.5t56.5 141.5h72q0 -115 -78 -188.5t-205 -73.5t-205 73.5t-78 188.5z" />
<glyph unicode="&#x2d9;" horiz-adv-x="440" d="M184 1321v113h72v-113h-72z" />
<glyph unicode="&#x2da;" horiz-adv-x="440" d="M33 1331q0 82 57 138.5t139 56.5t137.5 -56.5t55.5 -138.5t-55.5 -138t-137.5 -56q-84 0 -140 56t-56 138zM102 1331q0 -53 37 -92t90 -39q51 0 88 39t37 92t-36.5 91t-88.5 38q-53 0 -90 -38t-37 -91z" />
<glyph unicode="&#x2db;" horiz-adv-x="888" d="M344 -242q0 41 43 104.5t84 106.5l43 43l72 -10q-166 -174 -166 -240q0 -43 26.5 -72.5t69.5 -29.5l115 14l8 -67q-74 -16 -131 -17q-72 0 -118 45t-46 123z" />
<glyph unicode="&#x2dc;" horiz-adv-x="440" d="M-72 1368q100 96 168 96q43 0 157 -54t144 -54q37 0 127 84l19 -62q-86 -88 -150 -88q-43 0 -156.5 55.5t-144.5 55.5q-43 0 -143 -92z" />
<glyph unicode="&#x2dd;" horiz-adv-x="440" d="M-104 1274l333 213l37 -55l-334 -213zM274 1274l334 213l37 -55l-334 -213z" />
<glyph unicode="&#x300;" horiz-adv-x="440" d="M41 1436l33 63l393 -196l-31 -56z" />
<glyph unicode="&#x301;" horiz-adv-x="440" d="M20 1303l394 196l32 -63l-395 -189z" />
<glyph unicode="&#x302;" horiz-adv-x="440" d="M-31 1229l248 270h57l250 -270h-88l-188 205l-191 -205h-88z" />
<glyph unicode="&#x303;" horiz-adv-x="440" d="M-72 1368q100 96 168 96q43 0 157 -54t144 -54q37 0 127 84l19 -62q-86 -88 -150 -88q-43 0 -156.5 55.5t-144.5 55.5q-43 0 -143 -92z" />
<glyph unicode="&#x304;" horiz-adv-x="440" d="M-41 1315v65h547v-65h-547z" />
<glyph unicode="&#x306;" horiz-adv-x="440" d="M-31 1481h72q0 -86 56.5 -141.5t154.5 -55.5t154.5 55.5t56.5 141.5h72q0 -115 -78 -188.5t-205 -73.5t-205 73.5t-78 188.5z" />
<glyph unicode="&#x307;" horiz-adv-x="440" d="M184 1321v113h72v-113h-72z" />
<glyph unicode="&#x308;" horiz-adv-x="440" d="M0 1307v127h72v-127h-72zM389 1307v127h72v-127h-72z" />
<glyph unicode="&#x30a;" horiz-adv-x="440" d="M33 1331q0 82 57 138.5t139 56.5t137.5 -56.5t55.5 -138.5t-55.5 -138t-137.5 -56q-84 0 -140 56t-56 138zM102 1331q0 -53 37 -92t90 -39q51 0 88 39t37 92t-36.5 91t-88.5 38q-53 0 -90 -38t-37 -91z" />
<glyph unicode="&#x30b;" horiz-adv-x="440" d="M-104 1274l333 213l37 -55l-334 -213zM274 1274l334 213l37 -55l-334 -213z" />
<glyph unicode="&#x30c;" horiz-adv-x="440" d="M-35 1499h86l193 -203l190 203h86l-250 -270h-57z" />
<glyph unicode="&#x312;" horiz-adv-x="348" d="M86 1214l94 388h58l-78 -388h-74z" />
<glyph unicode="&#x315;" horiz-adv-x="276" d="M102 989v445h70v-445h-70z" />
<glyph unicode="&#x326;" horiz-adv-x="348" d="M86 -547l78 387h74l-95 -387h-57z" />
<glyph unicode="&#x327;" horiz-adv-x="806" d="M350 -403l4 57q90 -8 160 -8q98 0 98 94q0 86 -98 86h-111v176h68v-119q115 0 164 -30.5t49 -112.5q0 -152 -168 -152z" />
<glyph unicode="&#x328;" horiz-adv-x="888" d="M344 -242q0 41 43 104.5t84 106.5l43 43l72 -10q-166 -174 -166 -240q0 -43 26.5 -72.5t69.5 -29.5l115 14l8 -67q-74 -16 -131 -17q-72 0 -118 45t-46 123z" />
<glyph unicode="&#x394;" d="M96 0v53l373 1299h156l372 -1299l2 -53h-903zM178 70h735l-342 1212h-51z" />
<glyph unicode="&#x2206;" d="M96 0v53l373 1299h156l372 -1299l2 -53h-903zM178 70h735l-342 1212h-51z" />
<glyph unicode="&#x3a9;" d="M53 -18v59h309l-26 44q-16 28 -59.5 113t-76 166.5t-59 191.5t-26.5 202q0 322 88 468t340 146t339 -146.5t87 -467.5q0 -145 -62.5 -324.5t-124.5 -286.5l-61 -106h311v-59h-387v38q10 16 26.5 47t59.5 119t76 172t59.5 190.5t26.5 188.5q0 303 -67.5 430t-282.5 127 q-92 0 -155.5 -23.5t-101.5 -64.5t-58.5 -114.5t-27.5 -153.5t-7 -201q0 -131 61 -310t123 -292l63 -115v-38h-387z" />
<glyph unicode="&#x2126;" d="M53 -18v59h309l-26 44q-16 28 -59.5 113t-76 166.5t-59 191.5t-26.5 202q0 322 88 468t340 146t339 -146.5t87 -467.5q0 -145 -62.5 -324.5t-124.5 -286.5l-61 -106h311v-59h-387v38q10 16 26.5 47t59.5 119t76 172t59.5 190.5t26.5 188.5q0 303 -67.5 430t-282.5 127 q-92 0 -155.5 -23.5t-101.5 -64.5t-58.5 -114.5t-27.5 -153.5t-7 -201q0 -131 61 -310t123 -292l63 -115v-38h-387z" />
<glyph unicode="&#x3c0;" d="M8 926v71q51 10 128 16.5t128 8.5l51 2h443q195 0 295 33v-72q-70 -25 -213 -31v-639q0 -154 41 -199.5t161 -45.5v-70q-158 0 -216 64.5t-58 250.5v637h-418l-59 -952h-72l60 952q-195 -3 -271 -26z" />
<glyph unicode="&#x1e80;" horiz-adv-x="1785" d="M92 1434h72l293 -1364h78l317 1343h82l328 -1343h77l283 1364h72l-295 -1434h-197l-309 1317l-299 -1317h-197zM659 1825l33 63l393 -196l-30 -56z" />
<glyph unicode="&#x1e81;" horiz-adv-x="1558" d="M78 1024h76l260 -958h22l303 938h80l301 -938h23l262 958h76l-281 -1024h-139l-283 918l-284 -918h-140zM565 1436l33 63l393 -196l-30 -56z" />
<glyph unicode="&#x1e82;" horiz-adv-x="1785" d="M92 1434h72l293 -1364h78l317 1343h82l328 -1343h77l283 1364h72l-295 -1434h-197l-309 1317l-299 -1317h-197zM700 1692l394 196l32 -63l-395 -189z" />
<glyph unicode="&#x1e83;" horiz-adv-x="1558" d="M78 1024h76l260 -958h22l303 938h80l301 -938h23l262 958h76l-281 -1024h-139l-283 918l-284 -918h-140zM565 1303l393 196l33 -63l-395 -189z" />
<glyph unicode="&#x1e84;" horiz-adv-x="1785" d="M92 1434h72l293 -1364h78l317 1343h82l328 -1343h77l283 1364h72l-295 -1434h-197l-309 1317l-299 -1317h-197zM655 1716v127h72v-127h-72zM1057 1716v127h71v-127h-71z" />
<glyph unicode="&#x1e85;" horiz-adv-x="1558" d="M78 1024h76l260 -958h22l303 938h80l301 -938h23l262 958h76l-281 -1024h-139l-283 918l-284 -918h-140zM549 1307v127h72v-127h-72zM938 1307v127h72v-127h-72z" />
<glyph unicode="&#x1eab;" horiz-adv-x="1097" d="M113 281q0 133 66.5 206.5t215.5 87.5l389 41v107q0 131 -56 190.5t-171 59.5q-66 0 -163 -9.5t-161 -17.5l-63 -8l-6 68q229 37 393 36q299 0 299 -319v-588q8 -74 154 -86l-4 -65q-154 0 -211 82q-190 -84 -422 -84q-123 0 -191.5 77t-68.5 222zM166 1573 q100 96 168 96q43 0 156.5 -54t144.5 -54q37 0 127 84l18 -62q-86 -88 -149 -88q-43 0 -157 55.5t-144 55.5q-43 0 -144 -93zM188 281q0 -111 50.5 -172.5t136.5 -61.5q90 0 192.5 20.5t159.5 41.5l57 20v420l-381 -37q-215 -22 -215 -231zM221 1167l248 271h57l250 -271 h-88l-188 205l-191 -205h-88z" />
<glyph unicode="&#x1eb0;" horiz-adv-x="1236" d="M72 0l440 1434h217l436 -1430h-73l-138 436h-671l-138 -440h-73zM283 2111l32 64l394 -197l-31 -55zM303 510h631l-260 854h-111zM328 1831h71q0 -82 61.5 -130t149.5 -48t149.5 48t61.5 130h72q0 -111 -82 -177.5t-200.5 -66.5t-200.5 66.5t-82 177.5z" />
<glyph unicode="&#x1ec5;" horiz-adv-x="1038" d="M123 512q0 530 414 530q195 0 292 -116.5t97 -374.5v-68h-727q0 -221 69.5 -328.5t241.5 -107.5l373 19l4 -66q-229 -18 -379 -18q-217 2 -301 132t-84 398zM199 549h651q0 231 -75 329.5t-238 98.5q-338 0 -338 -428zM209 1573q100 96 168 96q43 0 156.5 -54t144.5 -54 q37 0 127 84l18 -62q-86 -88 -149 -88q-43 0 -157 55.5t-144 55.5q-43 0 -144 -93zM246 1167l248 271h57l250 -271h-88l-189 205l-190 -205h-88z" />
<glyph unicode="&#x1ed7;" horiz-adv-x="1097" d="M123 535q0 283 95 395t325 112q211 0 311 -118.5t100 -393.5q0 -301 -84 -424.5t-327 -123.5q-250 0 -335 119t-85 434zM186 1573q100 96 168 96q43 0 157 -54t144 -54q37 0 127 84l19 -62q-86 -88 -150 -88q-43 0 -156.5 55.5t-144.5 55.5q-43 0 -143 -93zM199 535 q0 -143 11 -226.5t48 -148t104.5 -89t180.5 -24.5q111 0 179.5 27.5t102 94.5t44 146.5t10.5 214.5q0 242 -81 344.5t-255 102.5q-199 0 -271.5 -93t-72.5 -349zM242 1167l247 271h58l250 -271h-88l-189 205l-190 -205h-88z" />
<glyph unicode="&#x1ef2;" horiz-adv-x="1105" d="M51 1434h84l420 -736l414 736h86l-463 -818v-616h-74v616zM340 1825l33 63l393 -196l-31 -56z" />
<glyph unicode="&#x1ef3;" horiz-adv-x="983" d="M72 1024h75l302 -958h83l304 958h75l-469 -1495h-75l147 471h-125zM276 1436l33 63l393 -196l-30 -56z" />
<glyph unicode="&#x1ef8;" horiz-adv-x="1105" d="M51 1434h84l420 -736l414 736h86l-463 -818v-616h-74v616zM233 1778q100 96 168 96q43 0 157 -54.5t144 -54.5q37 0 127 84l19 -61q-86 -88 -150 -88q-43 0 -156.5 55t-144.5 55q-43 0 -143 -92z" />
<glyph unicode="&#x1ef9;" horiz-adv-x="983" d="M72 1024h75l302 -958h83l304 958h75l-469 -1495h-75l147 471h-125zM170 1368q100 96 168 96q43 0 156.5 -54t144.5 -54q37 0 127 84l18 -62q-86 -88 -149 -88q-43 0 -156.5 55.5t-144.5 55.5q-43 0 -144 -92z" />
<glyph unicode="&#x2013;" horiz-adv-x="1024" d="M0 516v70h1024v-70h-1024z" />
<glyph unicode="&#x2014;" horiz-adv-x="2048" d="M0 516v70h2048v-70h-2048z" />
<glyph unicode="&#x2018;" horiz-adv-x="348" d="M74 1079l100 410h59l-81 -410h-78z" />
<glyph unicode="&#x2019;" horiz-adv-x="348" d="M113 1079l82 410h77l-100 -410h-59z" />
<glyph unicode="&#x201a;" horiz-adv-x="348" d="M92 -174l101 410h59l-82 -410h-78z" />
<glyph unicode="&#x201c;" horiz-adv-x="575" d="M31 1079l100 410h59l-81 -410h-78zM303 1079l100 410h60l-82 -410h-78z" />
<glyph unicode="&#x201d;" horiz-adv-x="598" d="M113 1079l82 410h77l-100 -410h-59zM408 1079l81 410h78l-100 -410h-59z" />
<glyph unicode="&#x201e;" horiz-adv-x="614" d="M92 -174l101 410h59l-82 -410h-78zM399 -174l101 410h59l-82 -410h-78z" />
<glyph unicode="&#x2020;" d="M131 950v70h375v414h72v-414h374v-70h-374v-1112h-72v1112h-375z" />
<glyph unicode="&#x2021;" d="M131 252v65h375v633h-375v70h375v414h72v-414h374v-70h-374v-633h374v-65h-374v-414h-72v414h-375z" />
<glyph unicode="&#x2022;" d="M287 225v594h512v-594h-512z" />
<glyph unicode="&#x2026;" horiz-adv-x="1523" d="M219 0v164h82v-164h-82zM739 0v164h82v-164h-82zM1260 0v164h81v-164h-81z" />
<glyph unicode="&#x2030;" horiz-adv-x="1705" d="M57 1163q0 272 211 272.5t211 -274.5q0 -141 -57 -211.5t-154 -70.5q-98 0 -154.5 70.5t-56.5 213.5zM129 1163q0 -219 139.5 -219t139.5 217q0 106 -32 157.5t-108 51.5q-74 0 -106.5 -51.5t-32.5 -155.5zM338 16l377 1420l67 -17l-379 -1417zM629 285q0 272 211 272 t211 -274q0 -141 -57.5 -212t-153.5 -71q-98 0 -154.5 71t-56.5 214zM700 285q0 -219 139.5 -219t139.5 217q0 106 -32 157.5t-107 51.5q-74 0 -107 -51.5t-33 -155.5zM1157 285q0 272 211 272t211 -274q0 -141 -57.5 -212t-153.5 -71q-98 0 -154.5 71t-56.5 214zM1229 285 q0 -219 139 -219t139 217q0 106 -31.5 157.5t-107.5 51.5q-74 0 -106.5 -51.5t-32.5 -155.5z" />
<glyph unicode="&#x2039;" horiz-adv-x="512" d="M47 479v74l342 264v-80l-276 -217l276 -239v-84z" />
<glyph unicode="&#x203a;" horiz-adv-x="512" d="M123 197v84l276 239l-276 217v80l342 -264v-74z" />
<glyph unicode="&#x2070;" horiz-adv-x="542" d="M45 1303q0 334 229 333q113 0 172.5 -77.5t59.5 -258.5q0 -340 -230 -339q-231 0 -231 342zM121 1300q0 -145 39 -207.5t116.5 -62.5t115.5 62.5t38 210.5q0 137 -37 200.5t-119 63.5q-80 0 -116.5 -64t-36.5 -203z" />
<glyph unicode="&#x2074;" horiz-adv-x="542" d="M37 1096v65l182 457h78l-178 -453h217v178h74v-178h75v-69h-75v-117h-74v117h-299z" />
<glyph unicode="&#x2075;" horiz-adv-x="542" d="M78 985l6 72q109 -25 197 -25q55 0 91 38t36 110q0 131 -117 131q-82 0 -144 -45l-63 4l18 348h357v-72h-287l-14 -209q45 45 133 45t142 -48t54 -154.5t-58 -162.5t-148 -56q-41 0 -91.5 6t-80.5 12z" />
<glyph unicode="&#x2076;" horiz-adv-x="542" d="M55 1300q0 182 61.5 259t180.5 77l164 -18l-4 -66q-82 14 -160 15q-82 0 -121 -49.5t-41 -163.5l21 10q23 8 60.5 18.5t68.5 10.5q209 0 209 -207q0 -104 -57.5 -164.5t-157.5 -60.5q-224 -1 -224 339zM133 1278q2 -123 35 -185.5t111 -62.5q137 0 137 156 q0 76 -30 106.5t-103 30.5q-35 0 -72 -11.5t-57.5 -21.5t-20.5 -12z" />
<glyph unicode="&#x2077;" horiz-adv-x="542" d="M61 1548v70h398v-125l-230 -530l-73 16l225 518v51h-320z" />
<glyph unicode="&#x2078;" horiz-adv-x="542" d="M39 1141q0 78 28.5 112.5t96.5 61.5q-61 23 -88 56.5t-27 96.5q0 168 221.5 168t221.5 -168q0 -68 -24 -100.5t-89 -52.5q63 -18 93 -54t30 -108q0 -106 -60.5 -149t-171.5 -43q-231 0 -231 180zM117 1143q0 -113 153.5 -113t153.5 121q0 57 -25.5 83t-91.5 42h-74 q-63 -16 -89.5 -44t-26.5 -89zM127 1468q0 -51 22.5 -74.5t83.5 -41.5h74q61 16 84 39.5t23 75t-33 76t-111 24.5q-143 -1 -143 -99z" />
<glyph unicode="&#x2079;" horiz-adv-x="542" d="M47 1421q0 100 61.5 157.5t157.5 57.5q223 0 223 -344q0 -184 -59 -257.5t-186 -73.5l-168 20l6 63q86 -14 162 -14q170 0 172 211q-88 -35 -162 -35q-94 0 -150.5 58.5t-56.5 156.5zM125 1423q0 -66 34 -106.5t97 -40.5l160 43q-4 123 -38 185.5t-112 62.5 q-66 0 -103.5 -37t-37.5 -107z" />
<glyph unicode="&#x2080;" horiz-adv-x="542" d="M45 324q0 334 229 333q113 0 172.5 -77.5t59.5 -257.5q0 -340 -230 -340q-231 0 -231 342zM121 322q0 -145 39 -208t116.5 -63t115.5 62.5t38 210.5q0 137 -37 200.5t-119 63.5q-80 0 -116.5 -63.5t-36.5 -202.5z" />
<glyph unicode="&#x2081;" horiz-adv-x="542" d="M80 502l203 137h73v-639h-73v559l-168 -115z" />
<glyph unicode="&#x2082;" horiz-adv-x="542" d="M57 0v70l201 213q37 39 56.5 63.5t37 62t17.5 76.5q0 102 -117 103l-184 -25l-5 68q104 27 191 26q188 0 188 -174q0 -66 -31.5 -121t-101.5 -126l-155 -166h303v-70h-400z" />
<glyph unicode="&#x2083;" horiz-adv-x="542" d="M59 4l7 66q111 -18 213 -19q129 0 129 119q0 125 -123 125h-133v70h133q37 0 70.5 38.5t33.5 90.5q0 47 -26.5 70.5t-92.5 23.5q-41 0 -90 -5t-78 -10l-28 -4l-6 66q109 23 200 22q100 0 148.5 -38.5t48.5 -124.5q0 -53 -24.5 -92.5t-42 -50.5t-31.5 -17q61 -18 88.5 -50 t27.5 -112q0 -190 -204 -190z" />
<glyph unicode="&#x2084;" horiz-adv-x="542" d="M37 117v65l182 457h78l-178 -453h217v179h74v-179h75v-69h-75v-117h-74v117h-299z" />
<glyph unicode="&#x2085;" horiz-adv-x="542" d="M78 6l6 72q109 -25 197 -25q55 0 91 38t36 110q0 131 -117 131q-82 0 -144 -45l-63 4l18 348h357v-72h-287l-14 -209q45 45 133 45t142 -48t54 -154.5t-58 -162.5t-148 -56q-41 0 -91.5 6t-80.5 12z" />
<glyph unicode="&#x2086;" horiz-adv-x="542" d="M55 322q0 182 61.5 258.5t180.5 76.5l164 -18l-4 -66q-82 14 -160 15q-82 0 -121 -49.5t-41 -163.5l21 10q23 8 60.5 18.5t68.5 10.5q209 0 209 -207q0 -104 -57.5 -164.5t-157.5 -60.5q-224 0 -224 340zM133 299q2 -123 35 -185.5t111 -62.5q137 0 137 156 q0 76 -30 106.5t-103 30.5q-35 0 -72 -11t-57.5 -21.5t-20.5 -12.5z" />
<glyph unicode="&#x2087;" horiz-adv-x="542" d="M61 569v70h398v-125l-230 -530l-73 16l225 518v51h-320z" />
<glyph unicode="&#x2088;" horiz-adv-x="542" d="M39 162q0 78 28.5 112.5t96.5 61.5q-61 23 -88 56.5t-27 96.5q0 168 221.5 168t221.5 -168q0 -68 -24 -100.5t-89 -52.5q63 -18 93 -54t30 -108q0 -106 -60.5 -149t-171.5 -43q-231 0 -231 180zM117 164q0 -113 153.5 -113t153.5 121q0 57 -25.5 83t-91.5 42h-74 q-63 -16 -89.5 -44t-26.5 -89zM127 489q0 -51 22.5 -74.5t83.5 -41.5h74q61 16 84 39.5t23 75t-33 76t-111 24.5q-143 -1 -143 -99z" />
<glyph unicode="&#x2089;" horiz-adv-x="542" d="M47 442q0 100 61.5 157.5t157.5 57.5q223 0 223 -344q0 -184 -59 -257.5t-186 -73.5l-168 20l6 64q86 -14 162 -15q170 0 172 211q-88 -35 -162 -35q-94 0 -150.5 58.5t-56.5 156.5zM125 444q0 -66 34 -106.5t97 -40.5l160 43q-4 123 -38 185.5t-112 62.5 q-66 0 -103.5 -37t-37.5 -107z" />
<glyph unicode="&#x20ac;" d="M10 502v69h127q-2 33 -2 107q0 86 2 127h-127v69h131q20 262 131 387t373 125q195 0 359 -38l-7 -72q-186 41 -352 41q-227 0 -318 -106.5t-108 -336.5l637 -2v-67h-641q-2 -41 -2 -127q0 -74 2 -107l641 -2v-67h-639q16 -236 107.5 -343.5t320.5 -107.5l352 41l7 -69 q-197 -41 -359 -41q-262 0 -373.5 124.5t-130.5 395.5h-131z" />
<glyph unicode="&#x2122;" d="M14 1208v64h410v-64h-170v-528h-68v528h-172zM496 678v594h102l172 -496l178 496h103v-594h-66v528l-180 -506h-72l-172 506v-528h-65z" />
<glyph unicode="&#x2211;" horiz-adv-x="1705" />
<glyph unicode="&#x2212;" d="M43 610v70h995v-70h-995z" />
<glyph unicode="&#x221e;" d="M35 598q0 166 58.5 258t174.5 92q104 0 165 -64.5t110 -195.5q49 131 108.5 195.5t165.5 64.5q117 0 175.5 -92t58.5 -258q0 -350 -238 -350q-104 0 -162.5 64.5t-107.5 193.5q-51 -154 -104.5 -206t-166.5 -52q-237 0 -237 350zM113 598q0 -279 157 -279q37 0 68 13.5 t50.5 29t40 50t29.5 55l28.5 68t25.5 63.5q-6 16 -25.5 63.5l-28.5 68t-29.5 55t-40 50t-50.5 29t-68 13.5q-157 0 -157 -279zM573 598q6 -16 25.5 -63.5t29 -68t30 -55t40 -50t50 -29t67.5 -13.5q158 0 158 279t-158 279q-37 0 -67.5 -13.5t-50 -29t-40 -50t-30 -55 t-29 -68t-25.5 -63.5z" />
<glyph unicode="&#x2248;" d="M137 403q115 111 209 111q70 0 210 -55.5t181 -55.5q33 0 81 28t79 54l33 27l14 -76q-111 -106 -205 -106q-68 0 -207 55t-186 55q-33 0 -82 -27.5t-80 -54.5l-32 -26zM139 752q115 111 209 110q70 0 210 -55t181 -55q33 0 81 27.5t81 54.5l31 26l14 -76 q-111 -106 -205 -106q-68 0 -207 55t-186 55q-33 0 -82 -27.5t-82 -53.5l-30 -27z" />
<glyph unicode="&#x2260;" d="M125 696v70h506l147 334l72 -29l-135 -305h280v-70h-311l-135 -309h448v-70h-479l-147 -337l-72 28l135 309h-307v70h338l135 309h-475z" />
<glyph unicode="&#x2264;" d="M186 135v74h670v-74h-670zM186 705v73l670 346v-80l-604 -299l604 -321v-84z" />
<glyph unicode="&#x2265;" d="M229 135v74h670v-74h-670zM229 340v84l605 321l-605 299v80l670 -346v-73z" />
<glyph unicode="&#xe000;" horiz-adv-x="1025" d="M0 1025h1025v-1025h-1025v1025z" />
<glyph horiz-adv-x="481" />
<glyph horiz-adv-x="1101" d="M207 0v1495h72v-534q170 82 352 81q203 0 275.5 -115.5t72.5 -391.5q0 -301 -96.5 -427t-370.5 -126zM279 59q160 -12 231 -12q127 0 206 27.5t120 93t54 147.5t13 215q0 244 -54 345.5t-218 101.5q-82 0 -170 -20.5t-135 -41.5l-47 -20v-836z" />
<glyph horiz-adv-x="1284" d="M211 0v1434h491q209 0 311.5 -84t102.5 -265q0 -272 -198 -346q254 -70 253 -338q0 -221 -110.5 -311t-319.5 -90h-530zM285 70h456q170 0 262.5 74.5t92.5 256.5q0 297 -371 297h-440v-628zM285 766h440q164 0 239.5 80t75.5 239q0 147 -81.5 213t-256.5 66h-417v-598z " />
<glyph horiz-adv-x="983" d="M72 1024h75l299 -958h89l301 958h75l-321 -1024h-201z" />
<glyph horiz-adv-x="933" d="M78 0l346 512l-346 512h82l307 -457l307 457h82l-346 -512l346 -512h-84l-305 457l-305 -457h-84z" />
<glyph d="M94 690q0 369 130 525.5t374 156.5l328 -39l-8 -67q-147 37 -320 37q-209 0 -317.5 -135.5t-108.5 -446.5q0 4 57.5 31.5t155.5 57.5t178 30q428 0 428 -414q0 -444 -438 -444q-236 0 -347.5 178t-111.5 530zM170 649q4 -299 94 -448.5t289 -149.5q195 0 277.5 92.5 t82.5 282.5q0 166 -79.5 255t-274.5 89q-180 -6 -385 -119z" />
<glyph d="M96 928q0 211 113 327.5t334 116.5q231 0 339.5 -177t108.5 -531q0 -371 -123 -526.5t-364 -155.5q-76 0 -164 11t-139 21l-49 11l12 65q168 -39 340 -39q207 0 309 138.5t102 453.5q0 -4 -57 -31.5t-155.5 -57.5t-178.5 -30q-217 0 -322.5 109t-105.5 295zM174 928 q0 -152 86 -243t268 -91q180 6 385 119l5 2q-10 588 -375 588q-369 0 -369 -375z" />
<glyph horiz-adv-x="1337" d="M211 0v1434h586q121 0 209 -72t130 -186.5t60 -223t18 -215.5q0 -80 -7 -159.5t-32.5 -189t-67.5 -191.5t-123 -139.5t-187 -57.5h-586zM285 70h512q90 0 157.5 57t101.5 133t53 180.5t23.5 169t4.5 127.5q0 70 -14.5 161t-47.5 203.5t-105.5 187.5t-172.5 75h-512v-1294 z" />
<glyph d="M211 0v1434h74v-1364h698v-70h-772z" />
<glyph horiz-adv-x="0" />
<glyph d="M59 1165q0 143 52.5 208t164.5 65q111 0 164.5 -64.5t53.5 -210.5q0 -283 -218 -282q-111 0 -164 68.5t-53 215.5zM131 1165q0 -111 33 -165t112 -54q82 0 114 53.5t32 163.5q0 109 -32 159t-114 50q-80 0 -112.5 -50.5t-32.5 -156.5zM381 12l295 1424l74 -15l-295 -1423 zM635 285q0 143 52 207.5t165 64.5q111 0 164 -64.5t53 -209.5q0 -283 -217 -283q-111 0 -164 69t-53 216zM707 285q0 -111 32.5 -165t112.5 -54q82 0 113.5 53t31.5 164q0 109 -31.5 159t-113.5 50q-80 0 -112.5 -50.5t-32.5 -156.5z" />
<glyph d="M279 938l225 164l-223 164l41 55l225 -166l86 264l65 -20l-86 -266h277v-70h-281l86 -264l-65 -21l-86 266l-226 -161z" />
<glyph horiz-adv-x="532" d="M10 616.5q0 182.5 50.5 411.5t99.5 369l49 139h72q-23 -59 -54.5 -158.5t-86 -344.5t-54.5 -417q0 -342 178 -829l17 -43h-72q-23 51 -55.5 139t-88 319.5t-55.5 414z" />
<glyph horiz-adv-x="532" d="M-8 -246q23 59 54.5 158.5t85.5 344.5t54 417q0 342 -178 829l-16 43h71q23 -51 56 -139t88 -319.5t55 -413.5t-49 -411.5t-98 -368.5l-52 -140h-71z" />
<glyph horiz-adv-x="583" d="M0 602v66q117 29 165 86t48 159q0 27 -7 124.5t-7 138.5q0 184 83 269t277 93l4 -65q-168 -8 -230.5 -79t-62.5 -218q0 -35 7.5 -125t7.5 -119q0 -133 -45 -195.5t-160 -99.5q115 -37 160 -100.5t45 -190.5l-15 -237q0 -147 62.5 -218t230.5 -79l-4 -66q-195 8 -277.5 93 t-82.5 270q0 43 7 136t7 115q0 100 -48 154.5t-165 87.5z" />
<glyph horiz-adv-x="1933" d="M123 711q0 377 118.5 559t430.5 182q221 0 301 -18h837v-74h-763v-586h641v-74h-641v-626h763v-74h-833v-2q-72 -16 -305 -16q-164 0 -272.5 45t-169 142t-84 225.5t-23.5 316.5zM201 711q0 -174 18.5 -287t68.5 -202t144 -130t240 -41q217 0 301 19v1288q-80 25 -301 24 q-143 0 -237.5 -43t-144.5 -134t-69.5 -206.5t-19.5 -287.5zM973 1358l2 -680v680h-2z" />
<glyph horiz-adv-x="1705" d="M469 434v66h379v477h-379v65h379v392h72v-392h378v-65h-378v-477h378v-66h-378v-434h-72v434h-379z" />
<glyph horiz-adv-x="790" d="M10 1397q229 55 340 55q203 0 306.5 -74.5t103.5 -249.5q0 -92 -42 -173t-101.5 -139l-120 -111.5t-102.5 -114t-42 -123.5v-78h-71v84q0 70 42 136.5t102 121.5l120 113q59 57 101 131t42 153q0 141 -83 198.5t-255 57.5l-330 -57zM276 2v164h82v-164h-82z" />
<glyph horiz-adv-x="288" d="M51 0v164h82v-164h-82zM51 705v163h82v-163h-82z" />
<glyph horiz-adv-x="348" d="M-12 -252l84 430h86l-107 -430h-63zM66 705v163h81v-163h-81z" />
<glyph horiz-adv-x="614" d="M98 1534h375v-66h-301v-1654h301v-66h-373z" />
<glyph horiz-adv-x="614" d="M104 -186h302v1654h-302v66h375l-2 -1786h-373v66z" />
<glyph horiz-adv-x="204" d="M-41 1413h244l-10 -471h-230z" />
<glyph horiz-adv-x="727" d="M68 1413h243l-10 -471h-229zM391 1413h244l-10 -471h-230z" />
<glyph horiz-adv-x="1433" d="M78 426q0 182 77.5 271t256.5 141q-66 72 -85.5 133t-19.5 155q0 133 80 214t234 81q160 0 236.5 -79.5t76.5 -217.5q0 -147 -78 -230t-260 -142l383 -379q41 119 63 299h72q-29 -221 -80 -353l287 -280l-49 -53l-268 266q-135 -270 -455 -270q-258 0 -364.5 112.5 t-106.5 331.5zM150 428q0 -190 94 -284.5t309 -94.5q281 0 397 254l-485 481q-176 -47 -245.5 -122.5t-69.5 -233.5zM379 1126q0 -160 92 -252l74 -73q178 61 247.5 128.5t69.5 196.5q0 229 -241.5 229t-241.5 -229z" />
<glyph horiz-adv-x="1167" d="M233 0v70h189v696h-141v65h141v195q0 213 66.5 290t213.5 77l246 -25v-65q-178 25 -246 24q-111 0 -159.5 -62.5t-48.5 -238.5v-195h372v-65h-372v-696h356l168 32l14 -65l-166 -35z" />
<glyph horiz-adv-x="1214" d="M139 502v69h127q-2 33 -2 107q0 86 2 127h-127v69h131q20 262 131 387t373 125q195 0 359 -38l-7 -72q-186 41 -352 41q-227 0 -318 -106.5t-108 -336.5l637 -2v-67h-641q-2 -41 -2 -127q0 -74 2 -107l641 -2v-67h-639q16 -236 107.5 -343.5t320.5 -107.5l352 41l7 -69 q-197 -41 -359 -41q-262 0 -373.5 124.5t-130.5 395.5h-131z" />
<glyph horiz-adv-x="1705" d="M504 1407l71 29l617 -1407l-72 -29z" />
<glyph horiz-adv-x="1064" d="M55 -70h877v-69h-877v69z" />
<glyph horiz-adv-x="1259" d="M211 0v1434h522q217 0 320.5 -102.5t103.5 -330.5q0 -229 -96 -352t-328 -123h-448v-526h-74zM285 596h448q346 0 346 405q0 188 -85 275.5t-261 87.5h-448v-768z" />
<glyph d="M6 684v74h688v-74h-688zM309 285v164h82v-164h-82zM309 989v164h82v-164h-82z" />
<glyph horiz-adv-x="839" d="M-100 479v70h475v475h74v-475h479v-70h-479v-479h-74v479h-475z" />
<glyph horiz-adv-x="901" d="M123 541v69h655v-69h-655z" />
<glyph d="M129 602v74l711 469v-80l-645 -422l645 -444v-84q-641 436 -711 487z" />
<glyph d="M2 702v70h1034v-70h-1034zM4 356v70h1034v-70h-1034z" />
<glyph d="M129 115v84l645 444l-645 422v80l711 -469v-74z" />
<glyph d="M94 25l568 1413l67 -29l-567 -1411z" />
<glyph horiz-adv-x="1794" d="M123 535q0 283 95 395t325 112q299 0 377 -245q90 246 372 245q195 0 292 -116.5t97 -374.5v-68h-727q0 -221 70 -328.5t242 -107.5l372 19l4 -66q-229 -18 -378 -18q-268 2 -346 219q-37 -115 -125 -167t-250 -52q-250 0 -335 119t-85 434zM199 535q0 -143 11 -226.5 t48 -148t104.5 -89t180.5 -24.5q111 0 179.5 27.5t102 94.5t44 146.5t10.5 214.5q0 242 -81 344.5t-255 102.5q-199 0 -271.5 -93t-72.5 -349zM954 549h652q0 231 -75 329.5t-239 98.5q-338 0 -338 -428z" />
<glyph horiz-adv-x="1839" d="M72 0l514 1434h1130v-70h-764v-590h641v-69h-641v-635h764v-70h-837v440h-566l-159 -440h-82zM338 510h541v854h-236z" />
<glyph horiz-adv-x="1343" d="M94 711q0 377 119 559t430 182q168 0 287 -57l106 227l68 -29l-113 -237q111 -86 156 -244t45 -401q0 -391 -115.5 -560t-433.5 -169q-162 0 -274 47l-119 -256l-68 26l123 264q-117 78 -164 236t-47 412zM172 711q0 -229 36 -368.5t130 -211.5l559 1196q-98 55 -254 55 q-143 0 -237.5 -43t-144.5 -134t-69.5 -206.5t-19.5 -287.5zM399 94q96 -43 244 -43t241 38t143 125t68.5 201.5t18.5 295.5q0 430 -156 573z" />
<glyph horiz-adv-x="1695" d="M113 281q0 143 63.5 206.5t218.5 87.5l389 41v107q0 250 -227 250l-385 -19l-4 68q225 20 389 20q236 0 285 -196q100 197 352 196q195 0 292 -116.5t97 -374.5v-68h-727q0 -221 69.5 -328.5t241.5 -107.5l373 19l4 -66q-229 -18 -379 -18q-203 2 -293 118l-77 -32 q-190 -86 -422 -86q-260 0 -260 299zM188 281q0 -113 49.5 -173.5t137.5 -60.5q86 0 198.5 24.5t173 45t95.5 35.5q-61 121 -62 360v37l-377 -37q-113 -10 -164 -65t-51 -166zM856 549h651q0 231 -74.5 329.5t-238.5 98.5q-338 0 -338 -428z" />
<glyph d="M123 498q0 297 107.5 420.5t306.5 123.5q215 0 316 -117.5t101 -430.5q0 -281 -108.5 -396.5t-306.5 -115.5q-416 0 -416 516zM195 500q0 -254 90 -353.5t256 -99.5q172 0 257 97.5t85 351.5q0 279 -84 380t-260 101q-80 0 -138.5 -20.5t-107.5 -70.5t-73.5 -147.5 t-24.5 -238.5z" />
<glyph d="M217 801l354 223h72v-1024h-72v946l-319 -203z" />
<glyph d="M207 0v66l411 358q106 94 154.5 167t48.5 167q0 117 -63.5 168t-206.5 51q-53 0 -137 -10.5t-142.5 -19.5t-58.5 -11l-6 63q201 43 346 43q340 0 340 -284q0 -115 -50 -193t-155 -166l-399 -333h637v-66h-719z" />
<glyph d="M215 18l10 66q205 -37 371 -37q295 4 295 229q0 219 -283 236h-250v66h248q106 6 180 56t74 154q0 106 -66.5 148.5t-209.5 42.5q-70 0 -156 -9t-137 -20l-53 -8l-9 66q197 37 353 36q174 0 262 -60t88 -198q0 -55 -20.5 -99t-48 -69.5t-59.5 -42t-49.5 -22.5t-21.5 -6 q72 -20 115 -42t79 -79t36 -145q0 -150 -95.5 -224.5t-271.5 -74.5q-76 0 -171 9t-153 17z" />
<glyph d="M111 207v63l360 754h74l-355 -752h517v301h71v-301h125v-65h-125v-275h-71v275h-596z" />
<glyph d="M227 18l9 66q233 -37 376 -37q131 0 205 71.5t74 217.5q0 240 -277 239q-139 0 -335 -88l-50 13l33 526h660v-65h-596l-29 -402q172 82 319 82q346 0 347 -305q0 -174 -94.5 -264t-256.5 -90z" />
<glyph d="M180 520q0 281 103.5 401.5t302.5 120.5q57 0 129.5 -7t115.5 -15l43 -8l-6 -64q-152 29 -282 29q-164 0 -250 -97.5t-86 -328.5q0 2 52 23.5t135 44t145 22.5q350 0 350 -319q0 -168 -95.5 -255t-283.5 -87q-373 -1 -373 540zM250 485q6 -442 303 -442q307 0 307 279 q0 133 -64.5 193t-217.5 60q-63 -2 -145.5 -24.5t-133.5 -42.5z" />
<glyph d="M121 961v65h670v-108l-461 -936l-66 20l455 922v37h-598z" />
<glyph d="M137 258q0 66 14.5 112t48 77.5t65.5 50t87 41.5q-98 33 -148 90t-50 157q0 135 95 195.5t281 60.5q387 0 388 -258q0 -100 -53.5 -156.5t-164.5 -88.5q113 -33 172.5 -91.5t59.5 -175.5q0 -166 -100.5 -229t-301.5 -63q-190 0 -291.5 63t-101.5 215zM209 258 q0 -121 82 -167t239 -46q166 0 248 47t82 180q0 61 -16.5 102.5t-53 66t-70.5 36.5t-95 27h-203q-109 -27 -161 -80t-52 -166zM225 784q0 -92 45 -138t152 -77h203q115 27 168 74t53 139q0 109 -79 152t-237 43q-156 0 -230.5 -42t-74.5 -151z" />
<glyph d="M150 705q0 160 98 249.5t272 89.5q389 0 389 -530q0 -285 -106.5 -408.5t-306.5 -123.5q-57 0 -134 8t-124 14l-48 8l5 66q170 -31 301 -31q164 0 251 98.5t87 333.5q0 -2 -51.5 -23.5t-133.5 -44t-143 -22.5q-172 0 -264 82t-92 234zM221 705q0 -250 287 -250 q63 2 145 24.5t133 44.5l50 21q-4 221 -79 327.5t-237 106.5q-299 0 -299 -274z" />
<glyph d="M496 -121v1555h71v-1555h-71z" />
<glyph horiz-adv-x="894" d="M25 506q0 399 356 434v270h72v-266l237 -22l-4 -72q-154 18 -233 20v-712l237 16l4 -72q-162 -18 -241 -18v-260h-72v260q-188 10 -272 100.5t-84 321.5zM106 506q0 -195 59.5 -266.5t215.5 -79.5v706q-137 -14 -206 -100t-69 -260z" />
<glyph d="M125 696v70h506l147 334l72 -29l-135 -305h280v-70h-311l-135 -309h448v-70h-479l-147 -337l-72 28l135 309h-307v70h338l135 309h-475z" />
<glyph horiz-adv-x="1105" d="M51 1352h84l420 -633l414 633h86l-391 -604h344v-70h-390l-26 -41v-195h418v-69h-418v-373h-74v373h-420v69h420v195l-26 41h-396v70h350z" />
<glyph d="M184 -512v1536h72v-528q0 -270 49 -359.5t215 -89.5q172 0 332 100l4 3v874h72v-1024h-72v82l-49 -28q-31 -17 -120 -44.5t-167 -27.5q-193 0 -264 104v-598h-72z" />
<glyph d="M143 -496l4 68q127 -6 185 -6q94 0 141 68.5t47 230.5v856h-141v65h141v228q0 365 260 364l191 -6l-4 -65q-125 4 -187 4q-188 0 -188 -299v-226h332v-65h-332v-856q0 -199 -64.5 -283t-195.5 -84z" />
<glyph horiz-adv-x="348" d="M-12 -252l86 430h82l-105 -430h-63z" />
<glyph horiz-adv-x="507" d="M201 0v164h82v-164h-82z" />
<glyph horiz-adv-x="348" d="M8 1079l82 410h78l-98 -410h-62z" />
<glyph horiz-adv-x="1705" d="M240 1073q0 158 109.5 259.5t271.5 101.5h712v-68h-198v-1366h-74v1366h-352v-1366h-74v717h-14q-162 0 -271.5 99t-109.5 257z" />
<glyph horiz-adv-x="583" d="M-2 -197q168 8 230.5 79t62.5 218q0 35 -7.5 125t-7.5 119q0 133 45.5 195.5t159.5 99.5q-115 37 -160 100.5t-45 190.5l15 237q0 147 -62.5 218t-230.5 79l4 66q195 -8 277.5 -93t82.5 -270q0 -43 -7 -136t-7 -116q0 -100 48 -154t165 -87v-66q-117 -29 -165 -86 t-48 -160q0 -27 7 -124t7 -138q0 -184 -82.5 -269t-277.5 -93z" />
<glyph horiz-adv-x="348" d="M-45 1079l98 410h62l-82 -410h-78z" />
<glyph horiz-adv-x="0" d="M178 344q0 55 10.5 101.5t22.5 75t40 60t43 46t54 44t53 42.5l-41 32q-31 25 -39 33l-33 30q-24 22 -31 34t-22.5 35.5t-19.5 45.5l-9 50q-5 29 -5 63q0 340 481 340q489 0 489 -342q0 -39 -3 -69.5t-17 -59t-20.5 -43t-33.5 -42.5l-34 -34q-6 -6 -46 -37.5t-46 -35.5 q14 -12 62 -48t64.5 -53.5t45 -55.5t39 -83t10.5 -106q0 -215 -133 -303.5t-377 -88.5q-504 0 -504 369zM481 418q0 -152 201 -152q207 0 207 152q0 102 -113 155h-180q-66 -31 -90.5 -67.5t-24.5 -87.5zM504 963q0 -14 1 -24.5t6 -21t8 -15.5t13.5 -14t15.5 -12.5 t22.5 -14.5t25.5 -17h180q8 6 22.5 15t19.5 13.5t15.5 11.5t13.5 12t9 12t7 14.5t3 17.5t2 23q0 66 -38.5 94t-143 28t-143.5 -29.5t-39 -92.5z" />
<glyph horiz-adv-x="733" d="M43 774v248h121v266l274 21v-287h252v-248h-252v-387q0 -61 3 -87t22.5 -44t60.5 -18l156 4l12 -236q-137 -31 -209 -31q-184 0 -251.5 83t-67.5 307v409h-121z" />
<glyph horiz-adv-x="901" d="M123 461v229h655v-229h-655z" />
<glyph horiz-adv-x="507" d="M92 0v291h270v-291h-270z" />
<glyph d="M2 217v270h1036v-270h-1036zM2 641v270h1034v-270h-1034z" />
<glyph horiz-adv-x="1064" d="M55 31h877v-271h-877v271z" />
<glyph horiz-adv-x="694" d="M49 545v188q213 53 213 185q0 27 -7 124t-7 138q0 186 89 268t312 90v-229q-94 -8 -119.5 -38t-25.5 -112q0 -35 7 -114.5t7 -108.5q0 -135 -45 -195.5t-160 -99.5q117 -39 161 -98.5t44 -192.5q0 -29 -7 -105.5t-7 -111.5q0 -84 26.5 -116.5t118.5 -41.5v-229 q-223 8 -312 94t-89 273q0 43 7 136t7 116q0 121 -213 180z" />
<glyph horiz-adv-x="583" d="M-219 -33q94 8 119.5 38t25.5 112q0 35 -7 114.5t-7 108.5q0 135 45 195.5t160 99.5q-117 39 -161 98.5t-44 192.5q0 29 7 105.5t7 111.5q0 84 -26.5 116.5t-118.5 40.5v230q223 -8 312 -94t89 -273q0 -43 -7 -136t-7 -116q0 -121 213 -180v-188q-213 -53 -213 -185 q0 -27 7 -124t7 -138q0 -186 -89 -268t-312 -90v229z" />
<glyph horiz-adv-x="839" d="M-100 389v250h387v385h250v-385h391v-250h-391v-389h-250v389h-387z" />
<glyph horiz-adv-x="542" d="M45 119q0 334 229 334q113 0 172.5 -78t59.5 -258q0 -340 -230 -340q-231 0 -231 342zM121 117q0 -145 39 -208t116.5 -63t115.5 62.5t38 210.5q0 137 -37 200.5t-119 63.5q-80 0 -116.5 -63.5t-36.5 -202.5z" />
<glyph horiz-adv-x="542" d="M80 297l203 137h73v-639h-73v559l-168 -114z" />
<glyph horiz-adv-x="542" d="M57 -135l201 213q37 39 56.5 63.5t37 62.5t17.5 77q0 102 -117 102l-184 -25l-5 68q104 27 191 27q188 0 188 -174q0 -66 -31.5 -121.5t-101.5 -126.5l-155 -166h303v-70h-400v70z" />
<glyph horiz-adv-x="542" d="M59 -201l7 66q111 -18 213 -19q129 0 129 119q0 125 -123 125h-133v70h133q37 0 70.5 39t33.5 90q0 47 -26.5 70.5t-92.5 23.5q-41 0 -90 -5t-78 -9l-28 -4l-6 65q109 23 200 23q100 0 148.5 -39t48.5 -125q0 -53 -24.5 -92t-42 -50.5t-31.5 -17.5q61 -18 88.5 -50 t27.5 -112q0 -190 -204 -190z" />
<glyph horiz-adv-x="542" d="M37 -23l182 457h78l-178 -452h217v178h74v-178h75v-70h-75v-117h-74v117h-299v65z" />
<glyph horiz-adv-x="542" d="M78 -199l6 72q109 -25 197 -25q55 0 91 38t36 110q0 131 -117 131q-82 0 -144 -45l-63 4l18 348h357v-72h-287l-14 -208q45 45 133 45t142 -48.5t54 -155t-58 -162.5t-148 -56q-41 0 -92.5 6t-82.5 12z" />
<glyph horiz-adv-x="542" d="M55 117q0 182 61.5 259t180.5 77l164 -19l-4 -65q-82 14 -160 14q-82 0 -121 -49t-41 -164l21 10q23 8 60.5 18.5t68.5 10.5q209 0 209 -207q0 -104 -57.5 -164.5t-157.5 -60.5q-224 0 -224 340zM133 94q2 -123 35 -185.5t111 -62.5q137 0 137 156q0 76 -30 106.5 t-103 30.5q-35 0 -72 -11t-57.5 -21.5t-20.5 -12.5z" />
<glyph horiz-adv-x="542" d="M61 365v69h398v-125l-230 -530l-73 16l225 518v52h-320z" />
<glyph horiz-adv-x="542" d="M39 -43q0 78 28.5 112.5t96.5 61.5q-61 23 -88 56.5t-27 97.5q0 168 221.5 168t221.5 -168q0 -68 -24 -100.5t-89 -53.5q63 -18 93 -54t30 -108q0 -106 -60.5 -149t-171.5 -43q-231 0 -231 180zM117 -41q0 -113 153.5 -113t153.5 121q0 57 -25.5 83t-91.5 42h-74 q-63 -16 -89.5 -44t-26.5 -89zM127 285q0 -51 22.5 -75t83.5 -42h74q61 16 84 39.5t23 75t-33 76t-111 24.5q-143 0 -143 -98z" />
<glyph horiz-adv-x="542" d="M47 238q0 100 61.5 157.5t157.5 57.5q223 0 223 -344q0 -184 -59 -258t-186 -74l-168 20l6 64q86 -14 162 -15q170 0 172 211q-88 -35 -162 -34q-94 0 -150.5 58.5t-56.5 156.5zM125 240q0 -66 34 -107t97 -41l160 43q-4 123 -38 185.5t-112 62.5q-66 0 -103.5 -36.5 t-37.5 -106.5z" />
<glyph horiz-adv-x="1523" d="M219 0v164h82v-164h-82zM739 0v164h82v-164h-82zM1260 0v164h81v-164h-81z" />
<glyph horiz-adv-x="790" d="M20 -104q0 92 42 173t103 139l120 111q59 53 101 114t42 124v78h72v-84q0 -70 -42 -136.5t-103 -121.5l-119 -113q-59 -57 -101.5 -131t-42.5 -153q0 -141 83 -198.5t255 -57.5l330 57l10 -70q-229 -55 -340 -55q-203 0 -306.5 75t-103.5 249zM422 858v164h82v-164h-82z " />
<glyph horiz-adv-x="790" d="M41 305q0 92 42 173t102 139l120 112q59 53 101.5 113.5t42.5 124.5v77h71v-83q0 -70 -42 -136.5t-102 -122.5l-120 -112q-59 -57 -101 -131t-42 -154q0 -141 83 -198.5t255 -57.5l329 57l11 -69q-229 -55 -340 -55q-203 0 -306.5 74.5t-103.5 248.5zM442 1268v164h82 v-164h-82z" />
<glyph horiz-adv-x="790" d="M41 305q0 92 42 173t102 139l120 112q59 53 101.5 113.5t42.5 124.5v77h71v-83q0 -70 -42 -136.5t-102 -122.5l-120 -112q-59 -57 -101 -131t-42 -154q0 -141 83 -198.5t255 -57.5l329 57l11 -69q-229 -55 -340 -55q-203 0 -306.5 74.5t-103.5 248.5zM442 1268v164h82 v-164h-82z" />
<glyph horiz-adv-x="1024" d="M0 578v69h1024v-69h-1024z" />
<glyph horiz-adv-x="2048" d="M0 578v69h2048v-69h-2048z" />
<glyph horiz-adv-x="507" d="M201 614v164h82v-164h-82z" />
<glyph d="M512 1268v164h82v-164h-82zM518 0v995h72v-995h-72z" />
<glyph horiz-adv-x="532" d="M115 678q0 182 49 411.5t98 368.5l51 139h72q-23 -59 -54.5 -158.5t-86 -344t-54.5 -416.5q0 -342 179 -830l16 -43h-72q-23 51 -55.5 139.5t-87.5 320t-55 413.5z" />
<glyph horiz-adv-x="532" d="M115 -184q23 59 54.5 158.5t85.5 344t54 416.5q0 342 -178 830l-16 43h71q23 -51 55.5 -139.5t88 -319.5t55.5 -413.5t-49 -412t-98 -368.5l-52 -139h-71z" />
<glyph horiz-adv-x="614" d="M100 -190v1785h373v-65h-301v-1655h301v-65h-373z" />
<glyph horiz-adv-x="614" d="M104 -125h302v1655h-302v65h373v-1785h-373v65z" />
<glyph horiz-adv-x="583" d="M0 664v65q117 29 165 86t48 160q0 27 -7 124t-7 138q0 184 83 269t277 93l4 -65q-168 -8 -230.5 -79t-62.5 -218q0 -35 7.5 -125t7.5 -119q0 -133 -45 -195.5t-160 -99.5q115 -37 160 -100t45 -190q-2 -20 -8.5 -105.5t-6.5 -132.5q0 -145 63.5 -217t229.5 -80l-4 -66 q-195 8 -277.5 93.5t-82.5 269.5q0 43 7 136t7 116q0 98 -48 153.5t-165 88.5z" />
<glyph horiz-adv-x="583" d="M-2 -135q168 8 230.5 78.5t62.5 218.5q0 35 -7.5 125t-7.5 119q0 133 45.5 195.5t159.5 98.5q-115 37 -160 100.5t-45 190.5q2 20 8.5 105.5t6.5 132.5q0 145 -63.5 217t-229.5 80l4 65q195 -8 277.5 -93t82.5 -269q0 -43 -7 -136.5t-7 -115.5q0 -98 48 -153.5t165 -88.5 v-65q-117 -29 -165 -86.5t-48 -159.5q0 -27 7 -124t7 -138q0 -184 -82.5 -269.5t-277.5 -93.5z" />
<glyph horiz-adv-x="440" d="M20 1825l33 63l393 -196l-30 -56z" />
<glyph horiz-adv-x="440" d="M61 1825l33 63l393 -196l-30 -56z" />
<glyph horiz-adv-x="440" d="M41 1692l393 196l33 -63l-395 -189z" />
<glyph horiz-adv-x="440" d="M41 1692l393 196l33 -63l-395 -189z" />
<glyph horiz-adv-x="913" d="M152 1657l274 256h61l275 -256h-92l-213 196l-211 -196h-94z" />
<glyph horiz-adv-x="440" d="M-51 1657l274 256h62l274 -256h-92l-213 196l-211 -196h-94z" />
<glyph horiz-adv-x="440" d="M-55 1913h92l213 -197l211 197h94l-274 -256h-62z" />
<glyph horiz-adv-x="440" d="M-55 1913h92l213 -197l211 197h94l-274 -256h-62z" />
<glyph horiz-adv-x="440" d="M-72 1780q117 117 185 116q47 0 171 -64.5t154 -64.5q16 0 53 26t66 52l29 27l22 -57q-106 -113 -170 -113q-47 0 -171 65.5t-154 65.5q-18 0 -59.5 -27.5t-73.5 -56.5l-31 -29z" />
<glyph horiz-adv-x="440" d="M-72 1780q117 117 185 116q47 0 171 -64.5t154 -64.5q16 0 53 26t66 52l29 27l22 -57q-106 -113 -170 -113q-47 0 -171 65.5t-154 65.5q-18 0 -59.5 -27.5t-73.5 -56.5l-31 -29z" />
<glyph horiz-adv-x="440" d="M-2 1716v127h72v-127h-72zM399 1716v127h72v-127h-72z" />
<glyph horiz-adv-x="440" d="M-2 1716v127h72v-127h-72zM399 1716v127h72v-127h-72z" />
<glyph horiz-adv-x="440" d="M-41 1704v65h588v-65h-588z" />
<glyph horiz-adv-x="440" d="M-41 1704v65h588v-65h-588z" />
<glyph horiz-adv-x="440" d="M-31 1892h72q0 -82 61.5 -130t149.5 -48t149.5 48t61.5 130h72q0 -111 -82 -177t-201 -66t-201 66t-82 177z" />
<glyph horiz-adv-x="440" d="M-31 1892h72q0 -82 61.5 -130t149.5 -48t149.5 48t61.5 130h72q0 -111 -82 -177t-201 -66t-201 66t-82 177z" />
<glyph horiz-adv-x="440" d="M47 1683.5q0 88.5 54.5 138.5t144.5 50t144 -50t54 -138.5t-54 -138.5t-144 -50t-144.5 50t-54.5 138.5zM115 1683.5q0 -61.5 34.5 -94.5t96 -33t96.5 33t35 94.5t-35 94t-96.5 32.5t-96 -32.5t-34.5 -94z" />
<glyph horiz-adv-x="440" d="M41 1683.5q0 88.5 54.5 138.5t144.5 50t144 -50t54 -138.5t-54 -138.5t-144 -50t-144.5 50t-54.5 138.5zM109 1683.5q0 -61.5 34.5 -94.5t96 -33t96.5 33t35 94.5t-35 94t-96.5 32.5t-96 -32.5t-34.5 -94z" />
<glyph horiz-adv-x="440" d="M-106 1620l393 180l28 -61l-391 -178zM285 1620l391 178l31 -59l-394 -180z" />
<glyph horiz-adv-x="440" d="M-106 1620l393 180l28 -61l-391 -178zM285 1620l391 178l31 -59l-394 -180z" />
<glyph horiz-adv-x="440" d="M184 1604v112h72v-112h-72z" />
<glyph horiz-adv-x="440" d="M184 1604v112h72v-112h-72z" />
<glyph horiz-adv-x="542" d="M45 1098q0 334 229 334q113 0 172.5 -78t59.5 -258q0 -340 -230 -340q-231 0 -231 342zM121 1096q0 -145 39 -208t116.5 -63t115.5 62.5t38 210.5q0 137 -37 200.5t-119 63.5q-80 0 -116.5 -63.5t-36.5 -202.5z" />
<glyph horiz-adv-x="542" d="M80 1276l203 137h73v-639h-73v559l-168 -114z" />
<glyph horiz-adv-x="542" d="M57 774v70l201 213q37 39 56.5 63.5t37 62.5t17.5 77q0 102 -117 102l-184 -25l-5 68q104 27 191 27q188 0 188 -175q0 -66 -31.5 -121t-101.5 -126l-155 -166h303v-70h-400z" />
<glyph horiz-adv-x="542" d="M59 778l7 66q111 -18 213 -19q129 0 129 119q0 125 -123 125h-133v70h133q37 0 70.5 39t33.5 90q0 47 -26.5 70.5t-92.5 23.5q-41 0 -90 -5t-78 -9l-28 -5l-6 66q109 23 200 23q100 0 148.5 -39t48.5 -125q0 -53 -24.5 -92t-42 -50.5t-31.5 -17.5q61 -18 88.5 -50 t27.5 -112q0 -190 -204 -190z" />
<glyph horiz-adv-x="542" d="M37 891v65l182 457h78l-178 -452h217v178h74v-178h75v-70h-75v-117h-74v117h-299z" />
<glyph horiz-adv-x="542" d="M78 780l6 72q109 -25 197 -25q55 0 91 38t36 110q0 131 -117 131q-82 0 -144 -45l-63 4l18 348h357v-72h-287l-14 -208q45 45 133 45t142 -48.5t54 -155t-58 -162.5t-148 -56q-41 0 -91.5 6t-80.5 12z" />
<glyph horiz-adv-x="542" d="M55 1096q0 182 61.5 259t180.5 77l164 -19l-4 -65q-82 14 -160 14q-82 0 -121 -49t-41 -164l21 10q23 8 60.5 18.5t68.5 10.5q209 0 209 -207q0 -104 -57.5 -164.5t-157.5 -60.5q-224 0 -224 340zM133 1073q2 -123 35 -185.5t111 -62.5q137 0 137 156q0 76 -30 106.5 t-103 30.5q-35 0 -72 -11t-57.5 -21.5t-20.5 -12.5z" />
<glyph horiz-adv-x="542" d="M61 1343v70h398v-125l-230 -530l-73 16l225 518v51h-320z" />
<glyph horiz-adv-x="542" d="M39 936q0 78 28.5 112.5t96.5 61.5q-61 23 -88 56.5t-27 97.5q0 168 221.5 168t221.5 -168q0 -68 -24 -101t-89 -53q63 -18 93 -54t30 -108q0 -106 -60.5 -149t-171.5 -43q-231 0 -231 180zM117 938q0 -113 153.5 -113t153.5 121q0 57 -25.5 83t-91.5 42h-74 q-63 -16 -89.5 -44t-26.5 -89zM127 1264q0 -51 22.5 -75t83.5 -42h74q61 16 84 39.5t23 75t-33 76t-111 24.5q-143 0 -143 -98z" />
<glyph horiz-adv-x="542" d="M47 1217q0 100 61.5 157.5t157.5 57.5q223 0 223 -345q0 -184 -59 -257.5t-186 -73.5l-168 20l6 64q86 -14 162 -15q170 0 172 211q-88 -35 -162 -35q-94 0 -150.5 59t-56.5 157zM125 1219q0 -66 34 -107t97 -41l160 43q-4 123 -38 185.5t-112 62.5q-66 0 -103.5 -36.5 t-37.5 -106.5z" />
</font>
</defs>
</svg>
