<?xml version="1.0" standalone="no"?>
<!DOCTYPE svg PUBLIC "-//W3C//DTD SVG 1.1//EN" "http://www.w3.org/Graphics/SVG/1.1/DTD/svg11.dtd" >
<svg xmlns="http://www.w3.org/2000/svg">
<metadata>
This is a custom SVG webfont generated by Font Squirrel.
Copyright   : Generated in 2010 by FontLab Studio Copyright info pending
Designer    : Campivisivi
Foundry     : Campivisivi
</metadata>
<defs>
<font id="TitilliumText22LXBold" horiz-adv-x="1085" >
<font-face units-per-em="2048" ascent="1536" descent="-512" />
<missing-glyph horiz-adv-x="481" />
<glyph unicode=" "  horiz-adv-x="481" />
<glyph unicode="&#x09;" horiz-adv-x="481" />
<glyph unicode="&#xa0;" horiz-adv-x="481" />
<glyph unicode="!" d="M406 1434h303l-11 -902h-282zM410 0v340h295v-340h-295z" />
<glyph unicode="&#x22;" horiz-adv-x="727" d="M68 1413h264l-10 -512h-250zM412 1413h264l-10 -512h-250z" />
<glyph unicode="#" d="M2 338v229h197v217h-197v230h197v338h237v-338h213v338h238v-338h196v-230h-196v-217h196v-229h-196v-338h-238v338h-213v-338h-237v338h-197zM436 567h213v217h-213v-217z" />
<glyph unicode="$" d="M61 1022q0 201 134.5 308.5t369.5 107.5h10l27 200h154l-27 -213l266 -43l-22 -252q-150 16 -279 27l-43 -334q217 -70 295 -155.5t78 -261.5q0 -207 -130 -316.5t-349 -114.5l-31 -241q-154 6 -154 14l31 238q-63 6 -136 18t-116 21l-41 8l29 252q160 -23 297 -33 l43 338q-223 68 -314.5 163t-91.5 269zM342 1026q0 -53 34 -85t128 -67l37 289q-199 -8 -199 -137zM580 252q86 6 124.5 41t38.5 106q0 49 -27.5 81t-99.5 63z" />
<glyph unicode="%" d="M2 1138.5q0 139.5 63.5 218.5t192.5 79t192.5 -79t63.5 -218.5t-63.5 -219t-192.5 -79.5t-192.5 79.5t-63.5 219zM49 121l866 1302l134 -96l-867 -1302zM203 1138.5q0 -75.5 11 -105t44 -29.5t44 29.5t11 105t-11 104.5t-44 29t-44 -29t-11 -104.5zM571 303 q0 139 63.5 218t192.5 79t192.5 -79t63.5 -218t-63.5 -219t-192.5 -80t-192.5 80t-63.5 219zM772 303q0 -76 11.5 -105.5t44 -29.5t44 29.5t11.5 105.5t-11.5 104.5t-44 28.5t-44 -28.5t-11.5 -104.5z" />
<glyph unicode="&#x26;" horiz-adv-x="1433" d="M66 406q0 258 284 419q-61 84 -82.5 142.5t-21.5 158.5q0 158 112.5 247t303.5 89q203 0 310 -91t107 -267q0 -133 -60.5 -223t-209.5 -201l160 -164q41 174 49 238l266 -6q-31 -213 -102 -402l229 -213l-164 -184l-211 182q-125 -96 -226 -137t-255 -41q-223 0 -356 119 t-133 334zM348 408q0 -88 61.5 -142.5t153.5 -54.5q80 0 137.5 19.5t128.5 70.5l-313 334q-72 -43 -120 -104.5t-48 -122.5zM522 1085q0 -106 90 -202l29 -31q88 66 124 111t36 110q0 131 -139.5 131t-139.5 -119z" />
<glyph unicode="'" horiz-adv-x="204" d="M-41 1413h264l-10 -512h-250z" />
<glyph unicode="(" horiz-adv-x="532" d="M10 616.5q0 182.5 50.5 411.5t99.5 369l49 139h299q-23 -59 -54.5 -158.5t-86 -344.5t-54.5 -417q0 -342 179 -829l16 -43h-299q-23 51 -55.5 139t-88 319.5t-55.5 414z" />
<glyph unicode=")" horiz-adv-x="532" d="M10 -256q23 57 54.5 152.5t86 333t54.5 407.5q0 172 -49.5 396t-98.5 364l-47 139h299q23 -55 55.5 -147.5t88 -331t55.5 -420.5t-49 -405.5t-99 -354.5l-51 -133h-299z" />
<glyph unicode="*" d="M215 938l215 160l-209 149l94 129l203 -141l84 240l154 -52l-78 -249h252v-152h-252l78 -246l-150 -45l-84 248l-211 -162z" />
<glyph unicode="+" d="M33 471v250h387v385h250v-385h391v-250h-391v-389h-250v389h-387z" />
<glyph unicode="," horiz-adv-x="348" d="M-12 -252l106 533h295l-125 -533h-276z" />
<glyph unicode="-" horiz-adv-x="901" d="M143 440v271h615v-271h-615z" />
<glyph unicode="." horiz-adv-x="507" d="M92 0v340h295v-340h-295z" />
<glyph unicode="/" d="M115 41l579 1434l262 -91l-579 -1433z" />
<glyph unicode="0" d="M14 668q0 373 133.5 540.5t393.5 167.5t393 -168t133 -540q0 -371 -132 -532t-394 -161t-394.5 161t-132.5 532zM317 668q0 -244 50.5 -333t175.5 -89t173 88t48 334q0 248 -49 343t-172 95q-125 0 -175.5 -96t-50.5 -342z" />
<glyph unicode="1" d="M57 1057l443 295h262v-1352h-283v1022l-291 -191z" />
<glyph unicode="2" d="M104 0v258l281 279l122 123q36 38 83 95.5t62.5 101.5t15.5 91q0 78 -51.5 113t-170.5 35q-61 0 -141 -7.5t-129 -15.5l-47 -8l-16 258q215 53 405 53q227 0 333.5 -97t106.5 -290q0 -152 -60 -261.5t-224 -268.5l-193 -189h500v-270h-877z" />
<glyph unicode="3" d="M94 25l27 254q229 -29 385 -29q211 0 211 151q0 143 -197 144h-272v256h272q66 0 119 52t53 105q0 143 -203 144q-72 0 -159.5 -6t-141.5 -15l-53 -6l-24 248q236 53 399 53q260 0 366.5 -89t106.5 -283q0 -104 -39 -171t-119 -120q96 -51 139.5 -114.5t43.5 -190.5 q0 -219 -110 -326t-351 -107q-90 0 -203 12.5t-180 24.5z" />
<glyph unicode="4" d="M45 197v229l336 926h311l-327 -885h260v407h282v-407h125v-270h-125v-217h-282v217h-580z" />
<glyph unicode="5" d="M72 43l30 252q268 -49 439 -49q82 0 132 48t50 130q0 86 -49 130t-139 44l-216 -31l-217 47l45 740h826v-271h-572l-32 -258q131 37 196 37q225 0 337 -102.5t112 -319.5q0 -221 -121 -343t-342 -122q-211 0 -479 68z" />
<glyph unicode="6" d="M45 670q0 383 143.5 544.5t419.5 161.5l406 -45l-25 -258q-209 31 -381 31q-272 0 -272 -289l43 12q43 12 107.5 25.5t107.5 13.5q231 0 348 -106.5t117 -331.5q0 -223 -131 -338t-365 -115q-518 1 -518 695zM334 571q0 -147 54 -238t175 -91q205 0 205 186 q0 180 -199 180q-49 -2 -108.5 -11t-91.5 -17z" />
<glyph unicode="7" d="M100 1081v273h865v-322l-488 -1069l-262 74l459 995v49h-574z" />
<glyph unicode="8" d="M37 344q0 131 40 204t130 148q-86 70 -117 136.5t-31 175.5q0 174 133.5 271t356.5 97t360.5 -98t137.5 -272q0 -119 -29 -178.5t-119 -131.5q90 -76 129 -143.5t39 -185.5q0 -201 -143.5 -296.5t-374.5 -95.5q-512 0 -512 369zM340 410q0 -164 209 -164q104 0 159.5 43 t55.5 121q0 102 -121 149h-180q-123 -47 -123 -149zM362 963q0 -86 101 -156h180q100 70 100 156q0 143 -190.5 143t-190.5 -143z" />
<glyph unicode="9" d="M31 924q0 219 134 335.5t361 116.5q266 0 392 -171t126 -521q0 -385 -143 -547t-420 -162l-405 45l24 254q209 -31 381 -30q135 0 204 78.5t69 209.5l-43 -12q-43 -10 -107.5 -22.5t-107.5 -12.5q-223 0 -344 111t-121 328zM322 924q0 -180 198 -181l236 41 q0 145 -58.5 235.5t-171.5 90.5q-96 0 -150 -47t-54 -139z" />
<glyph unicode=":" horiz-adv-x="471" d="M72 0v340h295v-340h-295zM72 592v340h295v-340h-295z" />
<glyph unicode=";" horiz-adv-x="493" d="M8 -231l127 553h295l-166 -553h-256zM115 592v340h295v-340h-295z" />
<glyph unicode="&#x3c;" d="M129 485v287l711 373v-287l-441 -225l441 -232v-286z" />
<glyph unicode="=" d="M43 238v249h973v-249h-973zM43 682v250h973v-250h-973z" />
<glyph unicode="&#x3e;" d="M129 115v286l440 232l-440 225v287l711 -373v-287z" />
<glyph unicode="?" horiz-adv-x="790" d="M10 1405q240 57 350 57q246 0 353.5 -91t107.5 -314q0 -104 -36.5 -185t-91 -129.5t-108 -85t-90 -73.5t-36.5 -76v-78h-295v84q0 78 37 137.5t88 98l103 74.5t89 85t37 111q0 84 -29.5 117.5t-140.5 33.5q-47 0 -122.5 -9t-129.5 -19l-53 -8zM164 0v340h295v-340h-295z " />
<glyph unicode="@" horiz-adv-x="2017" d="M82 535q0 473 256 715.5t694 242.5q449 0 676 -222t227 -646v-35q0 -326 -98 -468t-297 -142q-178 0 -266 88q-176 -86 -309 -86q-193 0 -288 119.5t-95 394.5q0 133 17 227t59 169t121 112.5t194 37.5l190 -45v27h275v-410q0 -164 10 -243.5t30.5 -102t61.5 -22.5 q66 0 92.5 69.5t26.5 274.5v37q0 324 -148.5 461t-478.5 137q-332 0 -503 -176.5t-171 -513.5q0 -375 153 -535t521 -160l293 19l10 -267q-205 -20 -303 -20q-236 0 -405.5 47t-295.5 156.5t-187.5 298.5t-61.5 461zM860 496q0 -135 30 -189.5t97 -54.5q82 0 191 31 q-14 86 -15 209v270q-90 20 -129 20q-109 0 -141.5 -56t-32.5 -230z" />
<glyph unicode="A" horiz-adv-x="1239" d="M41 0l313 1413h537l307 -1413h-283l-63 238h-475l-53 -238h-283zM436 510h363l-133 643h-93z" />
<glyph unicode="B" horiz-adv-x="1239" d="M143 0v1413h543q203 0 318.5 -87t115.5 -271q0 -135 -34.5 -207t-118.5 -125q96 -43 138 -115.5t42 -208.5q0 -203 -119 -301t-334 -98h-551zM422 260h258q90 0 133 38t43 124q0 158 -176 158h-258v-320zM422 836h252q158 0 157 168q0 150 -159 149h-250v-317z" />
<glyph unicode="C" horiz-adv-x="1093" d="M82 707q0 401 120 566t412 165q78 0 179.5 -14.5t164.5 -30.5l64 -15l-8 -248q-248 29 -359 29q-113 0 -171 -36t-84.5 -133t-26.5 -283q0 -268 56 -360.5t235 -92.5q45 0 133 8t153 17l64 6l6 -254q-244 -55 -406 -56q-309 0 -420.5 171.5t-111.5 560.5z" />
<glyph unicode="D" horiz-adv-x="1282" d="M143 0v1413h465q180 0 297 -39t181.5 -128t89 -208.5t24.5 -304.5q0 -195 -22.5 -319.5t-85 -224t-181 -144.5t-303.5 -45h-465zM422 268h186q80 0 136.5 21.5t88 56.5t49 98.5t22.5 127t5 161.5q0 80 -3 131t-13 102.5t-30.5 81t-54.5 53t-83 34t-117 10.5h-186v-877z " />
<glyph unicode="E" horiz-adv-x="1132" d="M143 0v1413h897v-270h-618v-316h496v-264h-496v-293h618v-270h-897z" />
<glyph unicode="F" horiz-adv-x="1101" d="M143 0v1413h897v-270h-618v-408h496v-268h-496v-467h-279z" />
<glyph unicode="G" horiz-adv-x="1218" d="M82 711q0 387 127 557t432 170q96 0 217 -14.5t195 -30.5l73 -15l-8 -243q-246 27 -432 26q-184 0 -248.5 -90t-64.5 -360q0 -272 59.5 -366.5t245.5 -94.5l170 8v240h-127v252h405v-727q-293 -47 -475 -48q-317 0 -443 179.5t-126 556.5z" />
<glyph unicode="H" horiz-adv-x="1370" d="M143 0v1413h283v-557h518v557h283v-1413h-283v584h-518v-584h-283z" />
<glyph unicode="I" horiz-adv-x="569" d="M143 0v1413h283v-1413h-283z" />
<glyph unicode="J" horiz-adv-x="643" d="M61 119q156 0 156 131v1163h281q0 -217 1 -587.5t1 -590t-99.5 -299t-339.5 -79.5v262z" />
<glyph unicode="K" horiz-adv-x="1214" d="M143 0v1413h283v-606l184 20l230 586h325l-303 -702l312 -711h-326l-234 555l-188 -20v-535h-283z" />
<glyph unicode="L" horiz-adv-x="997" d="M143 0v1413h283v-1141h510v-272h-793z" />
<glyph unicode="M" horiz-adv-x="1736" d="M143 0v1413h451l276 -1016l277 1016h446v-1413h-282v1057h-31l-268 -996h-283l-272 996h-31v-1057h-283z" />
<glyph unicode="N" horiz-adv-x="1435" d="M143 0v1413h445l391 -1057h31v1057h282v-1413h-430l-405 1057h-31v-1057h-283z" />
<glyph unicode="O" horiz-adv-x="1318" d="M82 696q0 375 131 558.5t446.5 183.5t446.5 -183.5t131 -558.5q0 -371 -130 -546t-447.5 -175t-447.5 175t-130 546zM373 696q0 -240 60.5 -344t226 -104t226 104.5t60.5 343.5q0 244 -61.5 356.5t-225 112.5t-225 -112.5t-61.5 -356.5z" />
<glyph unicode="P" horiz-adv-x="1212" d="M143 0v1413h512q496 0 496 -493q0 -248 -126 -382.5t-370 -134.5h-229v-403h-283zM426 676h227q211 0 211 244q0 221 -211 221h-227v-465z" />
<glyph unicode="Q" horiz-adv-x="1318" d="M82 696q0 375 131 558.5t446.5 183.5t446.5 -183.5t131 -558.5q0 -469 -211 -624l166 -271l-258 -120l-184 299q-57 -4 -91 -5q-317 0 -447 175t-130 546zM373 696q0 -240 60.5 -344t226 -104t226 104.5t60.5 343.5q0 244 -61.5 356.5t-225 112.5t-225 -112.5 t-61.5 -356.5z" />
<glyph unicode="R" horiz-adv-x="1257" d="M143 0v1413h541q254 0 373 -110.5t119 -358.5q0 -274 -205 -403l198 -541h-309l-164 457h-270v-457h-283zM426 725h262q199 0 199 215q0 205 -203 205h-258v-420z" />
<glyph unicode="S" d="M61 1022q0 201 134.5 308.5t369.5 107.5q70 0 177.5 -14.5t179.5 -26.5l73 -15l-22 -252q-289 33 -408 33q-223 0 -223 -137q0 -66 55.5 -102.5t233.5 -92.5q229 -74 311 -159.5t82 -265.5q0 -209 -135 -320t-361 -111q-156 0 -430 58l29 252q254 -35 399 -35 q115 0 166 34.5t51 114.5q0 66 -51 104t-198 81q-240 70 -336.5 165t-96.5 273z" />
<glyph unicode="T" horiz-adv-x="983" d="M-20 1141v272h1024v-272h-369v-1141h-283v1141h-372z" />
<glyph unicode="U" horiz-adv-x="1306" d="M123 471v942h283v-942q0 -117 64.5 -165t182.5 -48q248 0 248 213v942h283v-942q0 -256 -132 -372.5t-398.5 -116.5t-398.5 116.5t-132 372.5z" />
<glyph unicode="V" horiz-adv-x="1255" d="M41 1413h297l242 -1143h92l246 1143h296l-327 -1413h-522z" />
<glyph unicode="W" horiz-adv-x="1927" d="M49 1413h297l213 -1122h31l213 1122h321l213 -1122h31l213 1122h297l-315 -1413h-420l-180 997l-179 -997h-419z" />
<glyph unicode="X" horiz-adv-x="1189" d="M31 0l381 700l-381 713h313l252 -493l250 493h313l-375 -713l375 -700h-313l-250 485l-252 -485h-313z" />
<glyph unicode="Y" horiz-adv-x="1169" d="M20 1413h314l252 -493l250 493h313l-420 -811v-602h-283v604z" />
<glyph unicode="Z" horiz-adv-x="1167" d="M123 0v272l559 838v31h-559v272h921v-272l-559 -838v-31h559v-272h-921z" />
<glyph unicode="[" horiz-adv-x="614" d="M57 1534h518v-270h-235v-1246h235v-270h-516z" />
<glyph unicode="\" horiz-adv-x="1122" d="M70 1360l307 137l649 -1442l-305 -129z" />
<glyph unicode="]" horiz-adv-x="614" d="M57 18h236v1246h-236v270h518l-2 -1786h-516v270z" />
<glyph unicode="^" d="M29 641l370 711h287l371 -711h-287l-223 440l-232 -440h-286z" />
<glyph unicode="_" horiz-adv-x="1064" d="M55 31h877v-250h-877v250z" />
<glyph unicode="`" horiz-adv-x="548" d="M-37 1343l84 244l526 -188l-75 -215z" />
<glyph unicode="a" horiz-adv-x="1081" d="M82 311q0 164 87 233.5t269 82.5l221 14v51q0 41 -28.5 66.5t-73.5 25.5l-397 -16l-8 233q272 45 421 46q180 0 270.5 -81t90.5 -272v-379q0 -59 12 -78.5t53 -27.5l-8 -234q-123 0 -178 15.5t-113 54.5q-172 -70 -313 -70q-150 0 -227.5 89t-77.5 247zM358 319 q0 -109 84 -108q37 0 91.5 7t89.5 15l36 9v190l-186 -8q-115 -7 -115 -105z" />
<glyph unicode="b" horiz-adv-x="1118" d="M137 4v1430h275v-435q131 47 221 48q215 0 314.5 -119t99.5 -406q0 -319 -115 -433t-395 -114q-43 0 -143.5 7.5l-178.5 13.5zM412 233q94 -10 125 -10q137 0 184 64.5t47 234.5q0 147 -44 209t-128 62l-184 -17v-543z" />
<glyph unicode="c" horiz-adv-x="892" d="M72 522q0 272 102 398.5t330 126.5q53 0 135 -11.5t137 -21.5l55 -10l-8 -236q-162 16 -239 16q-143 0 -188.5 -55t-45.5 -207q0 -168 46 -226t190 -58l237 16l8 -236q-219 -43 -333 -43q-227 0 -326.5 128t-99.5 419z" />
<glyph unicode="d" horiz-adv-x="1128" d="M72 522q0 272 105.5 398.5t318.5 126.5q33 0 88 -7.5t94 -13.5l39 -6v414h274v-1434h-274v41q-141 -63 -246 -64q-223 0 -311 131t-88 414zM350 522q0 -158 36 -223.5t132 -67.5q80 2 199 29v520q-113 18 -201 19q-166 -1 -166 -277z" />
<glyph unicode="e" horiz-adv-x="1038" d="M72 498q0 549 452 549q446 0 447 -461l-21 -193h-602q2 -88 49 -127t158 -39l379 19l4 -213q-236 -57 -426 -58q-231 0 -335.5 123.5t-104.5 399.5zM346 604h354q0 109 -39.5 154t-136 45t-136.5 -47.5t-42 -151.5z" />
<glyph unicode="f" horiz-adv-x="702" d="M35 774v248h110v47q0 219 65.5 302t233.5 83q31 0 89.5 -6t101.5 -14l43 -7l-4 -223q-90 4 -156 4q-57 0 -77.5 -31.5t-20.5 -109.5v-45h248v-248h-248v-774h-275v774h-110z" />
<glyph unicode="g" horiz-adv-x="1101" d="M72 -186q0 133 145 245q-74 51 -74 154q0 23 20.5 63.5t41.5 71.5l18 29q-139 100 -139 305q0 186 117.5 274t312.5 88q41 0 92 -6t82 -14l33 -6l315 6v-219h-129q35 -61 35 -123q0 -205 -104.5 -282.5t-327.5 -77.5q-47 0 -84 8q-20 -53 -20 -80q0 -41 35.5 -54.5 t162.5 -13.5q258 0 352.5 -67.5t94.5 -241.5q0 -186 -135.5 -275.5t-350.5 -89.5q-246 0 -369.5 65t-123.5 241zM342 -158q0 -88 225 -88q207 0 207 103q0 55 -37 70.5t-155 17.5l-185 14q-55 -56 -55 -117zM358 682q0 -70 35 -100.5t117 -30.5q86 0 124 29.5t38 101.5 q0 68 -38 98.5t-122 30.5q-82 0 -118 -30.5t-36 -98.5z" />
<glyph unicode="h" horiz-adv-x="1148" d="M137 0v1434h275v-441q158 53 254 54q205 0 282.5 -124t77.5 -386v-537h-274v537q0 129 -29 191.5t-115 62.5l-196 -25v-766h-275z" />
<glyph unicode="i" horiz-adv-x="548" d="M137 0v1022h275v-1022h-275zM137 1155v281h275v-281h-275z" />
<glyph unicode="j" horiz-adv-x="555" d="M-70 -281q137 84 175 131.5t38 161.5v1010h275v-1012q0 -209 -73 -308t-292 -210zM143 1174v280h275v-280h-275z" />
<glyph unicode="k" horiz-adv-x="1060" d="M137 0v1434h275v-801l104 20l203 369h307l-264 -483l278 -539h-309l-209 385l-110 -20v-365h-275z" />
<glyph unicode="l" horiz-adv-x="548" d="M137 0v1434h275v-1434h-275z" />
<glyph unicode="m" horiz-adv-x="1734" d="M137 0v1022h273v-49q68 33 139 55q63 18 102 19q166 0 250 -84q225 84 350 84q203 0 282 -120t79 -392v-535h-275v422q0 236 -20 291q-27 78 -123 78l-190 -39q8 -141 8 -222v-530h-275v526q0 150 -26.5 207.5t-116.5 57.5q-31 0 -76 -8.5t-76 -16.5l-30 -10v-756h-275z " />
<glyph unicode="n" horiz-adv-x="1148" d="M137 0v1022h275v-45q158 70 254 70q205 0 282.5 -124t77.5 -388v-535h-274v535q0 131 -29 193.5t-115 62.5q-31 0 -80 -8.5t-82 -16.5l-34 -10v-756h-275z" />
<glyph unicode="o" d="M72 512q0 254 108.5 394.5t362.5 140.5t362.5 -140.5t108.5 -394.5t-108.5 -395.5t-362.5 -141.5t-362.5 141.5t-108.5 395.5zM350 512q0 -150 42 -219.5t150.5 -69.5t150.5 69.5t42 219.5t-42 218.5t-150.5 68.5t-150.5 -68.5t-42 -218.5z" />
<glyph unicode="p" horiz-adv-x="1118" d="M137 -430v1452h275v-47q131 72 231 72q209 0 306.5 -120t97.5 -407q0 -313 -109 -429t-356 -116l-170 17v-422h-275zM412 233q92 -10 149 -10q121 0 164 65.5t43 231.5q0 274 -178 275l-178 -39v-523z" />
<glyph unicode="q" horiz-adv-x="1097" d="M72 500q0 547 467 547q53 0 158.5 -6.5t183.5 -12.5l80 -6v-1454h-275v432q-53 -25 -147 -25q-467 1 -467 525zM346 500q0 -276 193 -277q31 0 67.5 9.5t57.5 17.5l22 8v537q-96 4 -147 4q-193 0 -193 -299z" />
<glyph unicode="r" horiz-adv-x="737" d="M137 0v1022h275v-96q123 90 284 121v-295q-80 -16 -151.5 -38t-102.5 -36l-30 -14v-664h-275z" />
<glyph unicode="s" horiz-adv-x="1017" d="M96 713q0 168 111.5 251t286.5 83q66 0 165 -13.5t164 -25.5l68 -13l-4 -229q-254 33 -373 33q-86 0 -114.5 -18.5t-28.5 -61.5q0 -35 36.5 -50.5t155.5 -33.5q205 -33 282 -102.5t77 -225.5q0 -332 -414 -332l-393 50l8 231q254 -33 358 -33q94 0 130 18.5t36 59.5 q0 35 -30.5 51.5t-135.5 34.5q-213 37 -299 102.5t-86 223.5z" />
<glyph unicode="t" horiz-adv-x="716" d="M31 774v248h121v287h274v-287h252v-248h-252v-387q0 -61 3 -87t22.5 -44t60.5 -18l156 4l12 -236q-137 -31 -209 -31q-184 0 -251.5 83t-67.5 307v409h-121z" />
<glyph unicode="u" horiz-adv-x="1148" d="M123 487v535h274v-535q0 -156 23.5 -210t120.5 -54q31 0 80 9.5t84 17.5l32 8v764h275v-1022h-275v43q-160 -68 -254 -68q-215 0 -287.5 116.5t-72.5 395.5z" />
<glyph unicode="v" horiz-adv-x="991" d="M16 1022h285l168 -795h55l172 795h279l-246 -1022h-467z" />
<glyph unicode="w" horiz-adv-x="1536" d="M25 1022h270l125 -774h49l156 756h286l156 -756h49l125 774h270l-190 -1022h-440l-115 627l-117 -627h-434z" />
<glyph unicode="x" horiz-adv-x="956" d="M20 0l279 510l-279 512h293l164 -315l166 315h293l-281 -512l281 -510h-293l-166 313l-164 -313h-293z" />
<glyph unicode="y" horiz-adv-x="993" d="M16 1022h271l186 -754h47l187 754h270l-359 -1450h-270l105 428h-185z" />
<glyph unicode="z" horiz-adv-x="976" d="M109 0v248l430 528h-430v248h759v-248l-430 -528h430v-248h-759z" />
<glyph unicode="{" horiz-adv-x="694" d="M49 526v230q113 29 153 69.5t40 114.5q0 27 -7.5 123t-7.5 137q0 193 103.5 271.5t339.5 87.5v-271q-94 -8 -120 -27.5t-26 -80.5q0 -35 7.5 -134.5t7.5 -127.5q0 -121 -45 -179.5t-160 -95.5q113 -37 159 -102.5t46 -188.5q0 -29 -7.5 -117t-7.5 -122q0 -63 27 -86 t119 -31v-270q-231 8 -337 90t-106 262q0 43 7.5 134t7.5 114q0 76 -41 122.5t-152 77.5z" />
<glyph unicode="|" d="M391 -471v2007h283v-2007h-283z" />
<glyph unicode="}" horiz-adv-x="694" d="M49 -4q92 8 119 30.5t27 86.5q0 35 -7.5 123t-7.5 116q0 123 46 188.5t159 102.5q-115 37 -160 95.5t-45 179.5q0 29 7.5 128t7.5 134q0 61 -26 80.5t-120 27.5v271q236 -8 339.5 -87t103.5 -272q0 -41 -7.5 -137t-7.5 -123q0 -74 40 -115t153 -69v-230 q-111 -31 -152 -78t-41 -122q0 -23 7.5 -114t7.5 -134q0 -180 -105.5 -262t-337.5 -90v270z" />
<glyph unicode="~" d="M119 696q12 12 34.5 30.5t91 48.5t134.5 30q53 0 183 -45t179 -45q35 0 87.5 19.5t86.5 39.5l35 21l17 -256q-10 -12 -31 -31t-83 -48.5t-124 -29.5q-57 0 -194.5 45t-172.5 45q-98 0 -223 -82z" />
<glyph unicode="&#xa1;" d="M406 -412l10 901h282l11 -901h-303zM410 682v340h295v-340h-295z" />
<glyph unicode="&#xa2;" horiz-adv-x="894" d="M25 512q0 420 372 451v206h230v-217l157 -20l-8 -236q-162 6 -239 6q-133 0 -183.5 -38.5t-50.5 -151.5t50 -153t186 -40l237 9l8 -236q-76 -12 -157 -22v-224h-230v213q-372 27 -372 453z" />
<glyph unicode="&#xa3;" d="M131 0v236h152v417h-131v240h131v133q0 367 368 367l277 -31v-234q-160 18 -269 19q-106 0 -106 -133v-121h313v-240h-313v-417h254l141 32l43 -231l-166 -35z" />
<glyph unicode="&#xa4;" d="M31 193l149 149q-84 172 0 348l-149 150l188 188l150 -149q172 82 348 0l149 149l189 -188l-150 -150q82 -176 0 -348l150 -149l-189 -189l-149 150q-176 -84 -348 0l-150 -150zM389 516.5q0 -63.5 45 -109t108.5 -45.5t108.5 45.5t45 109t-45 108.5t-108.5 45 t-108.5 -45t-45 -108.5z" />
<glyph unicode="&#xa5;" horiz-adv-x="1105" d="M-10 1352h313l252 -432l250 432h313l-293 -527h183v-229h-310v-72h310v-229h-310v-295h-282v295h-318v229h318v72h-318v229h189z" />
<glyph unicode="&#xa6;" d="M391 389h283v-860h-283v860zM391 672v864h283v-864h-283z" />
<glyph unicode="&#xa7;" d="M102 436q0 72 41 153t90 122q-90 66 -90 221q0 375 445 375q66 0 156 -12.5t147 -24.5l57 -13l-12 -221q-231 33 -330 33q-119 0 -157.5 -28.5t-38.5 -104.5q0 -45 55 -68.5t223 -64.5q184 -45 247.5 -104.5t63.5 -204.5q0 -139 -102 -285q41 -39 59.5 -84t18.5 -139 q0 -199 -105.5 -287t-339.5 -88q-63 0 -158.5 12t-158.5 25l-63 10l26 221q221 -31 334 -31q106 0 154.5 28t48.5 89q0 55 -51.5 80t-239.5 72q-180 45 -250 109.5t-70 209.5zM379 487q0 -59 23.5 -81.5t99.5 -43.5q86 -25 182 -57q37 47 37 150q0 51 -33 76.5t-133 52.5 l-68 16q-51 12 -73 18q-35 -53 -35 -131z" />
<glyph unicode="&#xa8;" horiz-adv-x="548" d="M-61 1241v270h262v-270h-262zM381 1241v270h262v-270h-262z" />
<glyph unicode="&#xa9;" d="M18 887q0 233 149.5 391t375.5 158q231 0 377.5 -161t146.5 -386q0 -231 -146.5 -388t-381.5 -157q-219 0 -370 158t-151 385zM147 889q0 -172 113 -293t281 -121q172 0 285.5 120t113.5 294q0 172 -114.5 295t-282.5 123t-282 -123t-114 -295zM279 899q0 158 64.5 231.5 t205.5 73.5l156 -10l-3 -217q-55 12 -153 12q-29 0 -44.5 -28.5t-15.5 -61.5q0 -41 16.5 -76t43.5 -35l153 11v-211q-53 -16 -153 -17q-143 0 -206.5 76t-63.5 252z" />
<glyph unicode="&#xaa;" horiz-adv-x="1060" d="M283 954q0 143 153 156l209 14v47q0 66 -24.5 89.5t-81.5 23.5l-213 -14l-4 63q141 16 217 17q88 0 129 -42t41 -139v-274q12 -41 75 -47l-4 -57q-66 2 -110 45q-129 -45 -244 -45q-63 0 -103 44.5t-40 118.5zM350 950q0 -94 82 -94q41 0 94.5 8t85.5 17l33 10v174 l-199 -12q-51 -4 -73.5 -28t-22.5 -75z" />
<glyph unicode="&#xab;" horiz-adv-x="1372" d="M184 397v197l457 336v-277l-223 -153l223 -176v-277zM764 397v197l457 336v-277l-224 -153l224 -176v-277z" />
<glyph unicode="&#xac;" d="M98 487v267h883v-561h-266v294h-617z" />
<glyph unicode="&#xae;" d="M-20 889q0 246 151.5 413.5t411.5 167.5t417.5 -166.5t157.5 -414.5q0 -242 -158.5 -413t-416.5 -171q-260 0 -411.5 168t-151.5 416zM106 889q0 -186 128 -322.5t308.5 -136.5t309.5 135t129 324q0 193 -129 326t-309 133q-186 0 -311.5 -132t-125.5 -327zM287 565v645 h258q254 0 254 -209q0 -80 -16.5 -122.5t-61.5 -79.5l92 -234h-211l-65 207h-54v-207h-196zM481 918h58q70 0 69 69q0 76 -71 76h-56v-145z" />
<glyph unicode="&#xaf;" horiz-adv-x="548" d="M-51 1274v237h669v-237h-669z" />
<glyph unicode="&#xb0;" d="M193 1155q0 137 84.5 222t222 85t222.5 -85t85 -222t-85 -221t-222.5 -84t-222 84t-84.5 221zM346 1155q0 -70 42 -113t111.5 -43t113.5 43t44 113t-44 114t-113.5 44t-111.5 -44t-42 -114z" />
<glyph unicode="&#xb1;" d="M33 61v250h1028v-250h-1028zM33 614v250h387v242h250v-242h391v-250h-391v-225h-250v225h-387z" />
<glyph unicode="&#xb2;" horiz-adv-x="542" d="M29 979v184l149 121q94 76 94 117q0 31 -75 31l-156 -13l-8 203q150 18 241 18q125 0 176.5 -47t51.5 -157q0 -68 -26.5 -114t-88.5 -91l-78 -57h193v-195h-473z" />
<glyph unicode="&#xb3;" horiz-adv-x="542" d="M41 973l12 190q125 -12 193 -12q59 0 59 33q0 29 -53 28h-135v174h131q41 0 41 29q0 31 -56 31l-172 -10l-12 186q139 18 221 18q248 0 248 -182q0 -109 -59 -143q72 -31 71 -150q0 -104 -63.5 -156.5t-177.5 -52.5z" />
<glyph unicode="&#xb4;" horiz-adv-x="548" d="M-2 1401l526 188l90 -260l-534 -160z" />
<glyph unicode="&#xb5;" d="M113 -451v1475h274v-590q2 -119 28.5 -165t114.5 -46q31 0 80 9.5t82 17.5l35 8v764h274v-1022h-274v43q-160 -68 -254 -68q-47 0 -86 7v-433h-274z" />
<glyph unicode="&#x3bc;" d="M113 -451v1475h274v-590q2 -119 28.5 -165t114.5 -46q31 0 80 9.5t82 17.5l35 8v764h274v-1022h-274v43q-160 -68 -254 -68q-47 0 -86 7v-433h-274z" />
<glyph unicode="&#xb6;" d="M16 1028q0 178 106.5 292t278.5 114h678v-211h-73v-1223h-234v1223h-127v-1223h-233v627h-15q-172 0 -276.5 111.5t-104.5 289.5z" />
<glyph unicode="&#xb7;" horiz-adv-x="507" d="M92 424v340h295v-340h-295z" />
<glyph unicode="&#xb8;" horiz-adv-x="1705" d="M745 -471l9 160q63 -2 98 -2q78 0 78 53q0 45 -78 45h-49v217h108v-78q131 -2 191.5 -39t60.5 -145q0 -117 -59.5 -175.5t-167.5 -58.5q-39 0 -87 5.5t-75 11.5z" />
<glyph unicode="&#xb9;" horiz-adv-x="542" d="M33 1464l217 154h196v-639h-217v399l-96 -65z" />
<glyph unicode="&#xba;" horiz-adv-x="1077" d="M295 1073q0 276 235 277q119 0 175.5 -66.5t56.5 -210.5q0 -283 -232 -282q-235 -1 -235 282zM365 1073q0 -117 38.5 -167t126.5 -50t125 50t37 167t-37 164t-125 47t-126.5 -48t-38.5 -163z" />
<glyph unicode="&#xbb;" horiz-adv-x="1372" d="M152 47v277l223 176l-223 153v277l456 -336v-197zM731 47v277l223 176l-223 153v277l457 -336v-197z" />
<glyph unicode="&#xbf;" horiz-adv-x="790" d="M10 -35q0 104 37 185t90 129.5t107.5 85t91.5 73.5t37 76v78h295v-84q0 -78 -37 -137.5t-88 -98.5t-103.5 -74.5t-89.5 -85t-37 -110.5q0 -84 30 -118t140 -34q47 0 123 9.5t129 17.5l53 10l33 -270q-240 -57 -350 -57q-246 0 -353.5 91t-107.5 314zM373 682v340h295 v-340h-295z" />
<glyph unicode="&#xc0;" horiz-adv-x="1236" d="M49 0l313 1413h537l307 -1413h-282l-64 238h-475l-53 -238h-283zM279 1696l90 260l526 -189l-82 -231zM444 510h363l-133 643h-92z" />
<glyph unicode="&#xc1;" horiz-adv-x="1236" d="M49 0l313 1413h537l307 -1413h-282l-64 238h-475l-53 -238h-283zM309 1810l527 189l90 -260l-535 -160zM444 510h363l-133 643h-92z" />
<glyph unicode="&#xc2;" horiz-adv-x="1236" d="M49 0l313 1413h537l307 -1413h-282l-64 238h-475l-53 -238h-283zM242 1597l268 353h221l270 -353h-292l-86 125l-88 -125h-293zM444 510h363l-133 643h-92z" />
<glyph unicode="&#xc3;" horiz-adv-x="1236" d="M49 0l313 1413h537l307 -1413h-282l-64 238h-475l-53 -238h-283zM229 1821q12 14 34 35.5t79 58.5t107 37q72 0 176 -44t125 -44q53 0 168 80l59 -207q-12 -14 -33.5 -36t-79 -57.5t-106.5 -35.5q-57 0 -167 45t-138 45q-25 0 -66 -20.5t-70 -41.5l-28 -20zM444 510h363 l-133 643h-92z" />
<glyph unicode="&#xc4;" horiz-adv-x="1236" d="M49 0l313 1413h537l307 -1413h-282l-64 238h-475l-53 -238h-283zM324 1651v270h262v-270h-262zM444 510h363l-133 643h-92zM766 1651v270h262v-270h-262z" />
<glyph unicode="&#xc5;" horiz-adv-x="1236" d="M49 0l301 1360q-27 53 -26 117q0 121 88 189.5t219 68.5t219 -69t88 -189q0 -66 -29 -117l297 -1360h-282l-64 238h-475l-53 -238h-283zM444 510h363l-133 643h-92zM535 1477q0 -51 59 -64h74q59 12 59 64q0 31 -25.5 49t-70.5 18t-70.5 -18t-25.5 -49z" />
<glyph unicode="&#xc6;" horiz-adv-x="1839" d="M98 0l377 1413h1299v-270h-619v-293h496v-268h-496v-312h619v-270h-897v238h-437l-59 -238h-283zM510 510h367l2 633h-205z" />
<glyph unicode="&#xc7;" horiz-adv-x="1099" d="M82 707q0 401 120 566t412 165q78 0 179.5 -14.5t164.5 -30.5l64 -15l-8 -248q-248 29 -359 29q-113 0 -171 -36t-84.5 -133t-26.5 -283q0 -268 56 -360.5t235 -92.5q45 0 133 8t153 17l64 6l6 -254q-227 -51 -389 -56v-51q131 -2 191.5 -39t60.5 -145 q0 -117 -59.5 -175.5t-168.5 -58.5q-39 0 -87 5.5t-76 11.5l-27 6l8 160q63 -2 98 -2q78 0 78 53q0 45 -78 45h-49v195q-252 23 -346 195t-94 532z" />
<glyph unicode="&#xc8;" horiz-adv-x="1132" d="M143 0v1413h897v-270h-618v-316h496v-264h-496v-293h618v-270h-897zM279 1696l90 260l526 -189l-82 -231z" />
<glyph unicode="&#xc9;" horiz-adv-x="1171" d="M154 0v1413h897v-270h-619v-316h496v-264h-496v-293h619v-270h-897zM301 1810l526 189l91 -260l-535 -160z" />
<glyph unicode="&#xca;" horiz-adv-x="1171" d="M154 0v1413h897v-270h-619v-316h496v-264h-496v-293h619v-270h-897zM256 1597l268 353h221l271 -353h-293l-86 125l-88 -125h-293z" />
<glyph unicode="&#xcb;" horiz-adv-x="1171" d="M154 0v1413h897v-270h-619v-316h496v-264h-496v-293h619v-270h-897zM276 1651v270h263v-270h-263zM719 1651v270h262v-270h-262z" />
<glyph unicode="&#xcc;" horiz-adv-x="569" d="M-70 1696l90 260l527 -189l-82 -231zM143 0v1413h283v-1413h-283z" />
<glyph unicode="&#xcd;" horiz-adv-x="569" d="M-10 1790l526 188l90 -260l-534 -159zM143 0v1413h283v-1413h-283z" />
<glyph unicode="&#xce;" horiz-adv-x="569" d="M-111 1608l269 305h252l268 -305h-307l-84 88l-84 -88h-314zM143 0v1413h283v-1413h-283z" />
<glyph unicode="&#xcf;" horiz-adv-x="569" d="M-72 1626v270h262v-270h-262zM143 0v1413h283v-1413h-283zM383 1626v270h262v-270h-262z" />
<glyph unicode="&#xd0;" horiz-adv-x="1282" d="M33 571v271h110v571h465q180 0 297 -39t181.5 -128t89 -208.5t24.5 -304.5q0 -195 -22.5 -319.5t-85 -224t-181 -144.5t-303.5 -45h-465v571h-110zM422 268h186q80 0 136.5 21.5t88 56.5t49 98.5t22.5 127t5 161.5q0 80 -3 131t-13 102.5t-30.5 81t-54.5 53t-83 34 t-117 10.5h-186v-303h266v-271h-266v-303z" />
<glyph unicode="&#xd1;" horiz-adv-x="1406" d="M121 0v1413h444l391 -1057h31v1057h283v-1413h-430l-406 1057h-31v-1057h-282zM305 1821q12 14 33.5 35.5t79 58.5t106.5 37q72 0 176.5 -44t124.5 -44q53 0 168 80l60 -207q-12 -14 -34 -36t-79 -57.5t-106 -35.5q-57 0 -167 45t-139 45q-25 0 -65.5 -20.5t-69.5 -41.5 l-28 -20z" />
<glyph unicode="&#xd2;" horiz-adv-x="1343" d="M94 696q0 375 131 558.5t446.5 183.5t446.5 -183.5t131 -558.5q0 -371 -130 -546t-447.5 -175t-447.5 175t-130 546zM332 1696l90 260l526 -189l-82 -231zM385 696q0 -240 60.5 -344t226.5 -104t226 104.5t60 343.5q0 244 -61 356.5t-225 112.5t-225.5 -112.5 t-61.5 -356.5z" />
<glyph unicode="&#xd3;" horiz-adv-x="1343" d="M94 696q0 375 131 558.5t446.5 183.5t446.5 -183.5t131 -558.5q0 -371 -130 -546t-447.5 -175t-447.5 175t-130 546zM334 1810l526 189l90 -260l-534 -160zM385 696q0 -240 60.5 -344t226.5 -104t226 104.5t60 343.5q0 244 -61 356.5t-225 112.5t-225.5 -112.5 t-61.5 -356.5z" />
<glyph unicode="&#xd4;" horiz-adv-x="1343" d="M94 696q0 375 131 558.5t446.5 183.5t446.5 -183.5t131 -558.5q0 -371 -130 -546t-447.5 -175t-447.5 175t-130 546zM289 1597l268 353h221l271 -353h-293l-86 125l-88 -125h-293zM385 696q0 -240 60.5 -344t226.5 -104t226 104.5t60 343.5q0 244 -61 356.5t-225 112.5 t-225.5 -112.5t-61.5 -356.5z" />
<glyph unicode="&#xd5;" horiz-adv-x="1343" d="M94 696q0 375 131 558.5t446.5 183.5t446.5 -183.5t131 -558.5q0 -371 -130 -546t-447.5 -175t-447.5 175t-130 546zM276 1821q12 14 34 35.5t79 58.5t107 37q72 0 176 -44t125 -44q53 0 168 80l59 -207q-12 -14 -33.5 -36t-79 -57.5t-106.5 -35.5q-57 0 -167 45t-138 45 q-25 0 -66 -20.5t-69 -41.5l-29 -20zM385 696q0 -240 60.5 -344t226.5 -104t226 104.5t60 343.5q0 244 -61 356.5t-225 112.5t-225.5 -112.5t-61.5 -356.5z" />
<glyph unicode="&#xd6;" horiz-adv-x="1343" d="M94 696q0 375 131 558.5t446.5 183.5t446.5 -183.5t131 -558.5q0 -371 -130 -546t-447.5 -175t-447.5 175t-130 546zM309 1651v270h262v-270h-262zM385 696q0 -240 60.5 -344t226.5 -104t226 104.5t60 343.5q0 244 -61 356.5t-225 112.5t-225.5 -112.5t-61.5 -356.5z M752 1651v270h262v-270h-262z" />
<glyph unicode="&#xd7;" d="M332 254l354 356l-354 357l176 176l354 -357l357 357l178 -176l-357 -357l357 -356l-178 -176l-357 354l-354 -354z" />
<glyph unicode="&#xd8;" horiz-adv-x="1318" d="M82 696q0 375 131 558.5t446 183.5q96 0 189 -21l117 250l256 -94l-138 -293q154 -174 154 -584q0 -371 -130 -546t-448 -175q-94 0 -176 17l-118 -256l-248 112l125 269q-160 161 -160 579zM373 696q0 -160 22 -250l332 713q-31 6 -68 6q-164 0 -225 -112.5t-61 -356.5z M604 250q16 -2 55 -2q166 0 226.5 104.5t60.5 343.5q0 147 -20 244z" />
<glyph unicode="&#xd9;" horiz-adv-x="1306" d="M12 1696l90 260l527 -189l-82 -231zM123 471v942h283v-942q0 -117 64.5 -165t182.5 -48q248 0 248 213v942h283v-942q0 -256 -132 -372.5t-398.5 -116.5t-398.5 116.5t-132 372.5z" />
<glyph unicode="&#xda;" horiz-adv-x="1314" d="M133 471v942h283v-942q0 -117 64.5 -165t183.5 -48q248 0 247 213v942h283v-942q0 -256 -132 -372.5t-398.5 -116.5t-398.5 116.5t-132 372.5zM330 1810l526 189l90 -260l-534 -160z" />
<glyph unicode="&#xdb;" horiz-adv-x="1314" d="M133 471v942h283v-942q0 -117 64.5 -165t183.5 -48q248 0 247 213v942h283v-942q0 -256 -132 -372.5t-398.5 -116.5t-398.5 116.5t-132 372.5zM285 1597l268 353h221l270 -353h-292l-86 125l-88 -125h-293z" />
<glyph unicode="&#xdc;" horiz-adv-x="1314" d="M133 471v942h283v-942q0 -117 64.5 -165t183.5 -48q248 0 247 213v942h283v-942q0 -256 -132 -372.5t-398.5 -116.5t-398.5 116.5t-132 372.5zM369 1651v270h262v-270h-262zM811 1651v270h262v-270h-262z" />
<glyph unicode="&#xdd;" horiz-adv-x="1105" d="M-10 1413h313l252 -493l250 493h313l-420 -811v-602h-282v604zM184 1810l527 189l90 -260l-535 -160z" />
<glyph unicode="&#xde;" d="M45 0v1413h283v-201h229q500 0 500 -489q0 -248 -128 -384t-372 -136h-229v-203h-283zM328 477h227q104 0 159.5 64.5t55.5 181.5q0 219 -215 219h-227v-465z" />
<glyph unicode="&#xdf;" horiz-adv-x="1286" d="M137 0v1069q0 207 116 296t357 89q248 0 359.5 -72.5t111.5 -244.5q0 -111 -44 -162t-148 -98q-74 -33 -97.5 -51.5t-23.5 -41.5q0 -33 33 -58.5t160 -82.5q145 -68 199 -128t54 -179q0 -205 -108.5 -279.5t-378.5 -74.5q-37 0 -97.5 12t-101.5 24l-43 13l9 213 q199 -8 233 -8q205 0 205 59q0 41 -34 69.5t-153 79.5q-145 61 -202.5 130t-57.5 180q0 98 38 155.5t120 91.5q98 41 127 62.5t29 52.5q0 51 -45 70.5t-144 19.5q-199 0 -198 -143v-1063h-275z" />
<glyph unicode="&#xe0;" horiz-adv-x="1097" d="M43 311q0 164 87 233.5t269 82.5l222 14v51q0 41 -29 66.5t-74 25.5l-397 -16l-8 233q272 45 422 46q180 0 270 -81t90 -272v-379q0 -59 12.5 -78.5t53.5 -27.5l-9 -234q-123 0 -178 15.5t-112 54.5q-172 -70 -314 -70q-150 0 -227.5 89t-77.5 247zM168 1343l84 244 l526 -188l-76 -215zM319 319q0 -109 84 -108q37 0 91.5 7t91.5 15l35 9v190l-187 -8q-115 -7 -115 -105z" />
<glyph unicode="&#xe1;" horiz-adv-x="1097" d="M43 311q0 164 87 233.5t269 82.5l222 14v51q0 41 -29 66.5t-74 25.5l-397 -16l-8 233q272 45 422 46q180 0 270 -81t90 -272v-379q0 -59 12.5 -78.5t53.5 -27.5l-9 -234q-123 0 -178 15.5t-112 54.5q-172 -70 -314 -70q-150 0 -227.5 89t-77.5 247zM180 1401l527 188 l90 -260l-535 -160zM319 319q0 -109 84 -108q37 0 91.5 7t91.5 15l35 9v190l-187 -8q-115 -7 -115 -105z" />
<glyph unicode="&#xe2;" horiz-adv-x="1097" d="M43 311q0 164 87 233.5t269 82.5l222 14v51q0 41 -29 66.5t-74 25.5l-397 -16l-8 233q272 45 422 46q180 0 270 -81t90 -272v-379q0 -59 12.5 -78.5t53.5 -27.5l-9 -234q-123 0 -178 15.5t-112 54.5q-172 -70 -314 -70q-150 0 -227.5 89t-77.5 247zM119 1188l268 352h221 l271 -352h-293l-86 125l-88 -125h-293zM319 319q0 -109 84 -108q37 0 91.5 7t91.5 15l35 9v190l-187 -8q-115 -7 -115 -105z" />
<glyph unicode="&#xe3;" horiz-adv-x="1097" d="M43 311q0 164 87 233.5t269 82.5l222 14v51q0 41 -29 66.5t-74 25.5l-397 -16l-8 233q272 45 422 46q180 0 270 -81t90 -272v-379q0 -59 12.5 -78.5t53.5 -27.5l-9 -234q-123 0 -178 15.5t-112 54.5q-172 -70 -314 -70q-150 0 -227.5 89t-77.5 247zM106 1411 q12 14 34 35.5t79 58.5t107 37q72 0 176 -44t125 -44q53 0 168 80l59 -207q-12 -14 -33.5 -35.5t-79 -57.5t-106.5 -36q-57 0 -167 45t-138 45q-25 0 -66 -20.5t-69 -40.5l-29 -21zM319 319q0 -109 84 -108q37 0 91.5 7t91.5 15l35 9v190l-187 -8q-115 -7 -115 -105z" />
<glyph unicode="&#xe4;" horiz-adv-x="1097" d="M43 311q0 164 87 233.5t269 82.5l222 14v51q0 41 -29 66.5t-74 25.5l-397 -16l-8 233q272 45 422 46q180 0 270 -81t90 -272v-379q0 -59 12.5 -78.5t53.5 -27.5l-9 -234q-123 0 -178 15.5t-112 54.5q-172 -70 -314 -70q-150 0 -227.5 89t-77.5 247zM156 1241v270h262 v-270h-262zM319 319q0 -109 84 -108q37 0 91.5 7t91.5 15l35 9v190l-187 -8q-115 -7 -115 -105zM598 1241v270h262v-270h-262z" />
<glyph unicode="&#xe5;" horiz-adv-x="1097" d="M43 311q0 164 87 233.5t269 82.5l222 14v51q0 41 -29 66.5t-74 25.5l-397 -16l-8 233q272 45 422 46q180 0 270 -81t90 -272v-379q0 -59 12.5 -78.5t53.5 -27.5l-9 -234q-123 0 -178 15.5t-112 54.5q-172 -70 -314 -70q-150 0 -227.5 89t-77.5 247zM287 1307 q0 100 68.5 169.5t170.5 69.5q100 0 170 -69.5t70 -169.5q0 -102 -69.5 -171t-170.5 -69q-102 0 -170.5 69t-68.5 171zM319 319q0 -109 84 -108q37 0 91.5 7t91.5 15l35 9v190l-187 -8q-115 -7 -115 -105zM465 1307q0 -29 17.5 -46.5t45.5 -17.5q27 0 44.5 18.5t17.5 45 t-17.5 44t-44 17.5t-45 -17t-18.5 -44z" />
<glyph unicode="&#xe6;" horiz-adv-x="1695" d="M106 311q0 164 89.5 234.5t267.5 81.5l221 14v51q0 41 -28.5 66.5t-73.5 25.5q-68 0 -167.5 -5t-164.5 -11l-66 -6l-8 239q272 45 422 46q176 0 264 -76q106 76 273 76q446 0 446 -461l-20 -193h-603q2 -88 49.5 -127t157.5 -39l379 19l4 -213q-236 -57 -426 -58 q-209 0 -313 99l-47 -23q-172 -76 -350 -76q-150 0 -228 89t-78 247zM383 319q0 -109 84 -108q37 0 91 7t89 15l37 9q0 33 -1 96t-1 94l-184 -8q-115 -7 -115 -105zM958 604h353q0 109 -40 154t-136 45q-98 0 -137.5 -47.5t-39.5 -151.5z" />
<glyph unicode="&#xe7;" horiz-adv-x="892" d="M72 522q0 272 102 398.5t330 126.5q53 0 135 -11.5t137 -21.5l55 -10l-8 -236q-162 16 -239 16q-143 0 -188.5 -55t-45.5 -207q0 -168 46 -226t190 -58l237 16l8 -236q-158 -31 -274 -41v-53q131 -2 191.5 -39t60.5 -145q0 -117 -59.5 -175.5t-167.5 -58.5 q-39 0 -87.5 5.5t-76.5 11.5l-27 6l8 160q63 -2 99 -2q78 0 77 53q0 45 -77 45h-49v192q-201 12 -289 141.5t-88 403.5z" />
<glyph unicode="&#xe8;" horiz-adv-x="1017" d="M68 498q0 549 452 549q446 0 447 -461l-21 -193h-602q2 -88 49 -127t158 -39l379 19l4 -213q-236 -57 -426 -58q-231 0 -335.5 123.5t-104.5 399.5zM166 1303l84 243l526 -188l-76 -215zM342 604h354q0 109 -40 154t-136 45t-136 -47.5t-42 -151.5z" />
<glyph unicode="&#xe9;" horiz-adv-x="1017" d="M68 498q0 549 452 549q446 0 447 -461l-21 -193h-602q2 -88 49 -127t158 -39l379 19l4 -213q-236 -57 -426 -58q-231 0 -335.5 123.5t-104.5 399.5zM229 1401l527 188l90 -260l-535 -160zM342 604h354q0 109 -40 154t-136 45t-136 -47.5t-42 -151.5z" />
<glyph unicode="&#xea;" horiz-adv-x="1017" d="M68 498q0 549 452 549q446 0 447 -461l-21 -193h-602q2 -88 49 -127t158 -39l379 19l4 -213q-236 -57 -426 -58q-231 0 -335.5 123.5t-104.5 399.5zM160 1188l268 352h221l271 -352h-293l-86 125l-88 -125h-293zM342 604h354q0 109 -40 154t-136 45t-136 -47.5 t-42 -151.5z" />
<glyph unicode="&#xeb;" horiz-adv-x="1017" d="M68 498q0 549 452 549q446 0 447 -461l-21 -193h-602q2 -88 49 -127t158 -39l379 19l4 -213q-236 -57 -426 -58q-231 0 -335.5 123.5t-104.5 399.5zM168 1241v270h262v-270h-262zM342 604h354q0 109 -40 154t-136 45t-136 -47.5t-42 -151.5zM610 1241v270h262v-270h-262z " />
<glyph unicode="&#xec;" horiz-adv-x="534" d="M-57 1343l84 244l526 -188l-76 -215zM137 0v1022h275v-1022h-275z" />
<glyph unicode="&#xed;" horiz-adv-x="534" d="M-2 1401l526 188l90 -260l-534 -160zM137 0v1022h275v-1022h-275z" />
<glyph unicode="&#xee;" horiz-adv-x="548" d="M-117 1188l269 352h221l270 -352h-293l-86 125l-88 -125h-293zM137 0v1022h275v-1022h-275z" />
<glyph unicode="&#xef;" horiz-adv-x="534" d="M-88 1241v270h262v-270h-262zM137 0v1022h275v-1022h-275zM354 1241v270h262v-270h-262z" />
<glyph unicode="&#xf0;" d="M45 479q0 193 123 305.5t324 112.5q63 0 128.5 -12.5t100.5 -24.5l33 -10q-10 106 -61.5 168.5t-170.5 103.5l-211 -166l-110 156l84 66l-150 24l37 232q213 -16 367 -58l196 154l111 -156l-98 -78q301 -164 301 -585q0 -375 -123 -552t-400 -177q-236 0 -358.5 125.5 t-122.5 371.5zM340 479q0 -244 186 -243q227 0 228 374q-98 47 -246 47q-76 0 -122 -53t-46 -125z" />
<glyph unicode="&#xf1;" horiz-adv-x="1175" d="M158 0v1022h274v-45q158 70 254 70q205 0 283 -124t78 -388v-535h-275v535q0 131 -28.5 193.5t-114.5 62.5q-31 0 -80 -8.5t-82 -16.5l-35 -10v-756h-274zM215 1411q12 14 33.5 35.5t79 58.5t106.5 37q72 0 176.5 -44t124.5 -44q53 0 168 80l60 -207q-12 -14 -34 -35.5 t-79 -57.5t-107 -36q-57 0 -166.5 45t-138.5 45q-25 0 -65.5 -20.5t-69.5 -40.5l-29 -21z" />
<glyph unicode="&#xf2;" d="M72 512q0 254 108.5 394.5t362.5 140.5t362.5 -140.5t108.5 -394.5t-108.5 -395.5t-362.5 -141.5t-362.5 141.5t-108.5 395.5zM244 1343l84 244l526 -188l-76 -215zM350 512q0 -150 42 -219.5t150.5 -69.5t150.5 69.5t42 219.5t-42 218.5t-150.5 68.5t-150.5 -68.5 t-42 -218.5z" />
<glyph unicode="&#xf3;" d="M72 512q0 254 108.5 394.5t362.5 140.5t362.5 -140.5t108.5 -394.5t-108.5 -395.5t-362.5 -141.5t-362.5 141.5t-108.5 395.5zM195 1401l526 188l90 -260l-535 -160zM350 512q0 -150 42 -219.5t150.5 -69.5t150.5 69.5t42 219.5t-42 218.5t-150.5 68.5t-150.5 -68.5 t-42 -218.5z" />
<glyph unicode="&#xf4;" d="M72 512q0 254 108.5 394.5t362.5 140.5t362.5 -140.5t108.5 -394.5t-108.5 -395.5t-362.5 -141.5t-362.5 141.5t-108.5 395.5zM150 1188l268 352h221l270 -352h-293l-86 125l-88 -125h-292zM350 512q0 -150 42 -219.5t150.5 -69.5t150.5 69.5t42 219.5t-42 218.5 t-150.5 68.5t-150.5 -68.5t-42 -218.5z" />
<glyph unicode="&#xf5;" d="M72 512q0 254 108.5 394.5t362.5 140.5t362.5 -140.5t108.5 -394.5t-108.5 -395.5t-362.5 -141.5t-362.5 141.5t-108.5 395.5zM158 1411q12 14 33.5 35.5t79 58.5t106.5 37q72 0 176 -44t125 -44q53 0 168 80l59 -207q-12 -14 -33.5 -35.5t-79 -57.5t-106.5 -36 q-57 0 -166.5 45t-138.5 45q-25 0 -66 -20.5t-69 -40.5l-29 -21zM350 512q0 -150 42 -219.5t150.5 -69.5t150.5 69.5t42 219.5t-42 218.5t-150.5 68.5t-150.5 -68.5t-42 -218.5z" />
<glyph unicode="&#xf6;" d="M72 512q0 254 108.5 394.5t362.5 140.5t362.5 -140.5t108.5 -394.5t-108.5 -395.5t-362.5 -141.5t-362.5 141.5t-108.5 395.5zM188 1241v270h263v-270h-263zM350 512q0 -150 42 -219.5t150.5 -69.5t150.5 69.5t42 219.5t-42 218.5t-150.5 68.5t-150.5 -68.5t-42 -218.5z M631 1241v270h262v-270h-262z" />
<glyph unicode="&#xf7;" d="M20 469v250h1037v-250h-1037zM412 94v271h270v-271h-270zM412 823v271h270v-271h-270z" />
<glyph unicode="&#xf8;" d="M72 512q0 254 108.5 394.5t362.5 140.5q57 0 114 -11l82 207l166 -61l-84 -203q193 -121 193 -467q0 -254 -108.5 -395.5t-362.5 -141.5q-72 0 -129 13l-84 -209l-164 61l86 209q-180 123 -180 463zM350 512q0 -125 25 -188l188 473q-2 0 -10 1t-10 1q-109 0 -151 -68.5 t-42 -218.5zM506 225q12 -2 37 -2q109 0 150.5 69.5t41.5 219.5q0 135 -33 199z" />
<glyph unicode="&#xf9;" horiz-adv-x="1148" d="M123 487v535h274v-535q0 -156 23.5 -210t120.5 -54q31 0 80 9.5t84 17.5l32 8v764h275v-1022h-275v43q-160 -68 -254 -68q-215 0 -287.5 116.5t-72.5 395.5zM176 1327l98 258l525 -188l-97 -250z" />
<glyph unicode="&#xfa;" horiz-adv-x="1148" d="M123 487v535h274v-535q0 -156 23.5 -210t120.5 -54q31 0 80 9.5t84 17.5l32 8v764h275v-1022h-275v43q-160 -68 -254 -68q-215 0 -287.5 116.5t-72.5 395.5zM225 1401l527 188l90 -260l-535 -160z" />
<glyph unicode="&#xfb;" horiz-adv-x="1148" d="M123 487v535h274v-535q0 -156 23.5 -210t120.5 -54q31 0 80 9.5t84 17.5l32 8v764h275v-1022h-275v43q-160 -68 -254 -68q-215 0 -287.5 116.5t-72.5 395.5zM139 1188l269 352h221l270 -352h-293l-86 125l-88 -125h-293z" />
<glyph unicode="&#xfc;" horiz-adv-x="1148" d="M123 487v535h274v-535q0 -156 23.5 -210t120.5 -54q31 0 80 9.5t84 17.5l32 8v764h275v-1022h-275v43q-160 -68 -254 -68q-215 0 -287.5 116.5t-72.5 395.5zM221 1241v270h262v-270h-262zM664 1241v270h262v-270h-262z" />
<glyph unicode="&#xfd;" horiz-adv-x="983" d="M-2 1022h270l187 -754h47l186 754h270l-358 -1450h-270l104 428h-184zM207 1401l526 188l90 -260l-534 -160z" />
<glyph unicode="&#xfe;" horiz-adv-x="1101" d="M150 -430v1864h274v-435q131 47 221 48q215 0 314.5 -119t99.5 -406q0 -319 -115 -433t-395 -114q-16 0 -61.5 3.5t-63.5 3.5v-412h-274zM424 233q94 -10 125 -10q137 0 184 64.5t47 234.5q0 147 -44 209t-128 62l-184 -17v-543z" />
<glyph unicode="&#xff;" horiz-adv-x="993" d="M16 1022h271l186 -754h47l187 754h270l-359 -1450h-270l105 428h-185zM158 1241v270h262v-270h-262zM600 1241v270h262v-270h-262z" />
<glyph unicode="&#x100;" horiz-adv-x="1239" d="M41 0l313 1413h537l307 -1413h-283l-63 238h-475l-53 -238h-283zM260 1622v238h711v-238h-711zM436 510h363l-133 643h-93z" />
<glyph unicode="&#x101;" horiz-adv-x="1081" d="M82 311q0 164 87 233.5t269 82.5l221 14v51q0 41 -28.5 66.5t-73.5 25.5l-397 -16l-8 233q272 45 421 46q180 0 270.5 -81t90.5 -272v-379q0 -59 12 -78.5t53 -27.5l-8 -234q-123 0 -178 15.5t-113 54.5q-172 -70 -313 -70q-150 0 -227.5 89t-77.5 247zM201 1274v237h669 v-237h-669zM358 319q0 -109 84 -108q37 0 91.5 7t89.5 15l36 9v190l-186 -8q-115 -7 -115 -105z" />
<glyph unicode="&#x102;" horiz-adv-x="1239" d="M41 0l313 1413h537l307 -1413h-283l-63 238h-475l-53 -238h-283zM238 1905h284q16 -80 96 -80q84 0 99 80h284q-16 -139 -111 -224.5t-271.5 -85.5t-270.5 85.5t-110 224.5zM436 510h363l-133 643h-93z" />
<glyph unicode="&#x103;" horiz-adv-x="1081" d="M82 311q0 164 87 233.5t269 82.5l221 14v51q0 41 -28.5 66.5t-73.5 25.5l-397 -16l-8 233q272 45 421 46q180 0 270.5 -81t90.5 -272v-379q0 -59 12 -78.5t53 -27.5l-8 -234q-123 0 -178 15.5t-113 54.5q-172 -70 -313 -70q-150 0 -227.5 89t-77.5 247zM143 1532h285 q14 -90 113 -90q100 0 112 90h285q-16 -154 -115.5 -244t-282 -90t-282 90t-115.5 244zM358 319q0 -109 84 -108q37 0 91.5 7t89.5 15l36 9v190l-186 -8q-115 -7 -115 -105z" />
<glyph unicode="&#x104;" horiz-adv-x="1239" d="M41 0l313 1413h537l307 -1413h-12q-102 -86 -103 -156q0 -51 41 -51l78 6l27 -219q-121 -23 -209 -22q-98 0 -160.5 53t-62.5 143q0 139 135 246h-17l-63 238h-475l-53 -238h-283zM436 510h363l-133 643h-93z" />
<glyph unicode="&#x105;" horiz-adv-x="1081" d="M82 311q0 164 87 233.5t269 82.5l221 14v51q0 41 -28.5 66.5t-73.5 25.5l-397 -16l-8 233q272 45 421 46q180 0 270.5 -81t90.5 -272v-379q0 -59 12 -78.5t53 -27.5l-8 -234q-41 0 -57 2q-78 -74 -78 -133q0 -51 41 -51l78 6l26 -219q-121 -23 -208 -22q-98 0 -161 53 t-63 143q0 47 17.5 91t41 75t48 55.5t41.5 36.5l18 11q-4 2 -35 22q-172 -70 -313 -70q-150 0 -227.5 89t-77.5 247zM358 319q0 -109 84 -108q37 0 91.5 7t89.5 15l36 9v190l-186 -8q-115 -7 -115 -105z" />
<glyph unicode="&#x106;" horiz-adv-x="1083" d="M82 707q0 401 120 566t412 165q78 0 179.5 -14.5t164.5 -30.5l64 -15l-8 -248q-248 29 -359 29q-113 0 -171 -36t-84.5 -133t-26.5 -283q0 -268 56 -360.5t235 -92.5q45 0 133 8t153 17l64 6l6 -254q-244 -55 -406 -56q-309 0 -420.5 171.5t-111.5 560.5zM295 1790 l526 188l90 -260l-534 -159z" />
<glyph unicode="&#x107;" horiz-adv-x="892" d="M72 522q0 272 102 398.5t330 126.5q53 0 135 -11.5t137 -21.5l55 -10l-8 -236q-162 16 -239 16q-143 0 -188.5 -55t-45.5 -207q0 -168 46 -226t190 -58l237 16l8 -236q-219 -43 -333 -43q-227 0 -326.5 128t-99.5 419zM180 1401l527 188l90 -260l-535 -160z" />
<glyph unicode="&#x108;" horiz-adv-x="1083" d="M82 707q0 401 120 566t412 165q78 0 179.5 -14.5t164.5 -30.5l64 -15l-8 -248q-248 29 -359 29q-113 0 -171 -36t-84.5 -133t-26.5 -283q0 -268 56 -360.5t235 -92.5q45 0 133 8t153 17l64 6l6 -254q-244 -55 -406 -56q-309 0 -420.5 171.5t-111.5 560.5zM207 1608 l268 305h252l268 -305h-307l-84 88l-84 -88h-313z" />
<glyph unicode="&#x109;" horiz-adv-x="892" d="M70 1188l268 352h221l270 -352h-292l-86 125l-89 -125h-292zM72 522q0 272 102 398.5t330 126.5q53 0 135 -11.5t137 -21.5l55 -10l-8 -236q-162 16 -239 16q-143 0 -188.5 -55t-45.5 -207q0 -168 46 -226t190 -58l237 16l8 -236q-219 -43 -333 -43q-227 0 -326.5 128 t-99.5 419z" />
<glyph unicode="&#x10a;" horiz-adv-x="1083" d="M82 707q0 401 120 566t412 165q78 0 179.5 -14.5t164.5 -30.5l64 -15l-8 -248q-248 29 -359 29q-113 0 -171 -36t-84.5 -133t-26.5 -283q0 -268 56 -360.5t235 -92.5q45 0 133 8t153 17l64 6l6 -254q-244 -55 -406 -56q-309 0 -420.5 171.5t-111.5 560.5zM465 1591v277 h274v-277h-274z" />
<glyph unicode="&#x10b;" horiz-adv-x="892" d="M72 522q0 272 102 398.5t330 126.5q53 0 135 -11.5t137 -21.5l55 -10l-8 -236q-162 16 -239 16q-143 0 -188.5 -55t-45.5 -207q0 -168 46 -226t190 -58l237 16l8 -236q-219 -43 -333 -43q-227 0 -326.5 128t-99.5 419zM350 1139v276h275v-276h-275z" />
<glyph unicode="&#x10c;" horiz-adv-x="1083" d="M82 707q0 401 120 566t412 165q78 0 179.5 -14.5t164.5 -30.5l64 -15l-8 -248q-248 29 -359 29q-113 0 -171 -36t-84.5 -133t-26.5 -283q0 -268 56 -360.5t235 -92.5q45 0 133 8t153 17l64 6l6 -254q-244 -55 -406 -56q-309 0 -420.5 171.5t-111.5 560.5zM227 1905h314 l84 -95l84 95h307l-268 -303h-248z" />
<glyph unicode="&#x10d;" horiz-adv-x="892" d="M72 522q0 272 102 398.5t330 126.5q53 0 135 -11.5t137 -21.5l55 -10l-8 -236q-162 16 -239 16q-143 0 -188.5 -55t-45.5 -207q0 -168 46 -226t190 -58l237 16l8 -236q-219 -43 -333 -43q-227 0 -326.5 128t-99.5 419zM113 1540h295l86 -123l84 123h294l-266 -352h-229z " />
<glyph unicode="&#x10e;" horiz-adv-x="1282" d="M143 0v1413h465q180 0 297 -39t181.5 -128t89 -208.5t24.5 -304.5q0 -195 -22.5 -319.5t-85 -224t-181 -144.5t-303.5 -45h-465zM223 1905h314l84 -95l84 95h307l-269 -303h-247zM422 268h186q80 0 136.5 21.5t88 56.5t49 98.5t22.5 127t5 161.5q0 80 -3 131t-13 102.5 t-30.5 81t-54.5 53t-83 34t-117 10.5h-186v-877z" />
<glyph unicode="&#x10f;" horiz-adv-x="1576" d="M72 522q0 272 105.5 398.5t318.5 126.5q33 0 88 -7.5t94 -13.5l39 -6v414h274v-1434h-274v41q-141 -63 -246 -64q-223 0 -311 131t-88 414zM350 522q0 -158 36 -223.5t132 -67.5q80 2 199 29v520q-113 18 -201 19q-166 -1 -166 -277zM1153 883v532h266v-532h-266z" />
<glyph unicode="&#x110;" horiz-adv-x="1282" d="M33 567v271h110v575h465q180 0 297 -39t181.5 -128t89 -208.5t24.5 -304.5q0 -195 -22.5 -319.5t-85 -224t-181 -144.5t-303.5 -45h-465v567h-110zM422 268h186q80 0 136.5 21.5t88 56.5t49 98.5t22.5 127t5 161.5q0 80 -3 131t-13 102.5t-30.5 81t-54.5 53t-83 34 t-117 10.5h-186v-307h266v-271h-266v-299z" />
<glyph unicode="&#x111;" horiz-adv-x="1118" d="M72 522q0 272 105.5 398.5t318.5 126.5q33 0 88 -7.5t94 -13.5l39 -6v254h-459v237h670v-77h63v-1434h-274v41q-141 -63 -246 -64q-223 0 -311 131t-88 414zM350 522q0 -158 36 -223.5t132 -67.5q80 2 199 29v520q-113 18 -201 19q-166 -1 -166 -277z" />
<glyph unicode="&#x112;" horiz-adv-x="1132" d="M143 0v1413h897v-270h-618v-316h496v-264h-496v-293h618v-270h-897zM231 1642v238h711v-238h-711z" />
<glyph unicode="&#x113;" horiz-adv-x="1038" d="M72 498q0 549 452 549q446 0 447 -461l-21 -193h-602q2 -88 49 -127t158 -39l379 19l4 -213q-236 -57 -426 -58q-231 0 -335.5 123.5t-104.5 399.5zM184 1274v237h670v-237h-670zM346 604h354q0 109 -39.5 154t-136 45t-136.5 -47.5t-42 -151.5z" />
<glyph unicode="&#x114;" horiz-adv-x="1132" d="M143 0v1413h897v-270h-618v-316h496v-264h-496v-293h618v-270h-897zM225 1905h285q16 -80 96 -80q84 0 99 80h284q-16 -139 -111.5 -224.5t-271.5 -85.5t-270.5 85.5t-110.5 224.5z" />
<glyph unicode="&#x115;" horiz-adv-x="1038" d="M72 498q0 549 452 549q446 0 447 -461l-21 -193h-602q2 -88 49 -127t158 -39l379 19l4 -213q-236 -57 -426 -58q-231 0 -335.5 123.5t-104.5 399.5zM121 1532h285q14 -90 112 -90q100 0 113 90h284q-16 -154 -115.5 -244t-281.5 -90t-281.5 90t-115.5 244zM346 604h354 q0 109 -39.5 154t-136 45t-136.5 -47.5t-42 -151.5z" />
<glyph unicode="&#x116;" horiz-adv-x="1132" d="M143 0v1413h897v-270h-618v-316h496v-264h-496v-293h618v-270h-897zM469 1591v277h274v-277h-274z" />
<glyph unicode="&#x117;" horiz-adv-x="1038" d="M72 498q0 549 452 549q446 0 447 -461l-21 -193h-602q2 -88 49 -127t158 -39l379 19l4 -213q-236 -57 -426 -58q-231 0 -335.5 123.5t-104.5 399.5zM346 604h354q0 109 -39.5 154t-136 45t-136.5 -47.5t-42 -151.5zM381 1139v276h274v-276h-274z" />
<glyph unicode="&#x118;" horiz-adv-x="1132" d="M143 0v1413h897v-270h-618v-316h496v-264h-496v-293h618v-270h-34q-102 -86 -103 -156q0 -51 41 -51l78 6l27 -219q-121 -23 -209 -22q-98 0 -161 53t-63 143q0 139 136 246h-609z" />
<glyph unicode="&#x119;" horiz-adv-x="1038" d="M72 498q0 549 452 549q446 0 447 -461l-21 -193h-602q2 -88 49 -127t158 -39l379 19l4 -213q-41 -10 -94 -21h4q-106 -86 -107 -157q0 -51 41 -52l78 7l27 -220q-121 -23 -209 -22q-98 0 -160.5 53t-62.5 143q0 115 96 211h-39q-231 0 -335.5 123.5t-104.5 399.5z M346 604h354q0 109 -39.5 154t-136 45t-136.5 -47.5t-42 -151.5z" />
<glyph unicode="&#x11a;" horiz-adv-x="1132" d="M143 0v1413h897v-270h-618v-316h496v-264h-496v-293h618v-270h-897zM264 1942h314l84 -95l83 95h308l-269 -304h-247z" />
<glyph unicode="&#x11b;" horiz-adv-x="1038" d="M72 498q0 549 452 549q446 0 447 -461l-21 -193h-602q2 -88 49 -127t158 -39l379 19l4 -213q-236 -57 -426 -58q-231 0 -335.5 123.5t-104.5 399.5zM139 1540h295l86 -123l84 123h295l-266 -352h-230zM346 604h354q0 109 -39.5 154t-136 45t-136.5 -47.5t-42 -151.5z" />
<glyph unicode="&#x11c;" horiz-adv-x="1218" d="M82 711q0 387 127 557t432 170q96 0 217 -14.5t195 -30.5l73 -15l-8 -243q-246 27 -432 26q-184 0 -248.5 -90t-64.5 -360q0 -272 59.5 -366.5t245.5 -94.5l170 8v240h-127v252h405v-727q-293 -47 -475 -48q-317 0 -443 179.5t-126 556.5zM254 1608l268 305h252l268 -305 h-307l-84 88l-84 -88h-313z" />
<glyph unicode="&#x11d;" horiz-adv-x="1101" d="M72 -186q0 133 145 245q-74 51 -74 154q0 23 20.5 63.5t41.5 71.5l18 29q-139 100 -139 305q0 186 117.5 274t312.5 88q41 0 92 -6t82 -14l33 -6l315 6v-219h-129q35 -61 35 -123q0 -205 -104.5 -282.5t-327.5 -77.5q-47 0 -84 8q-20 -53 -20 -80q0 -41 35.5 -54.5 t162.5 -13.5q258 0 352.5 -67.5t94.5 -241.5q0 -186 -135.5 -275.5t-350.5 -89.5q-246 0 -369.5 65t-123.5 241zM172 1188l268 352h222l270 -352h-293l-86 125l-88 -125h-293zM342 -158q0 -88 225 -88q207 0 207 103q0 55 -37 70.5t-155 17.5l-185 14q-55 -56 -55 -117z M358 682q0 -70 35 -100.5t117 -30.5q86 0 124 29.5t38 101.5q0 68 -38 98.5t-122 30.5q-82 0 -118 -30.5t-36 -98.5z" />
<glyph unicode="&#x11e;" horiz-adv-x="1218" d="M82 711q0 387 127 557t432 170q96 0 217 -14.5t195 -30.5l73 -15l-8 -243q-246 27 -432 26q-184 0 -248.5 -90t-64.5 -360q0 -272 59.5 -366.5t245.5 -94.5l170 8v240h-127v252h405v-727q-293 -47 -475 -48q-317 0 -443 179.5t-126 556.5zM268 1905h285q16 -80 96 -80 q84 0 99 80h284q-16 -139 -111.5 -224.5t-271.5 -85.5t-270.5 85.5t-110.5 224.5z" />
<glyph unicode="&#x11f;" horiz-adv-x="1101" d="M72 -186q0 133 145 245q-74 51 -74 154q0 23 20.5 63.5t41.5 71.5l18 29q-139 100 -139 305q0 186 117.5 274t312.5 88q41 0 92 -6t82 -14l33 -6l315 6v-219h-129q35 -61 35 -123q0 -205 -104.5 -282.5t-327.5 -77.5q-47 0 -84 8q-20 -53 -20 -80q0 -41 35.5 -54.5 t162.5 -13.5q258 0 352.5 -67.5t94.5 -241.5q0 -186 -135.5 -275.5t-350.5 -89.5q-246 0 -369.5 65t-123.5 241zM154 1532h284q14 -90 113 -90q100 0 113 90h284q-16 -154 -115.5 -244t-281.5 -90t-281.5 90t-115.5 244zM342 -158q0 -88 225 -88q207 0 207 103 q0 55 -37 70.5t-155 17.5l-185 14q-55 -56 -55 -117zM358 682q0 -70 35 -100.5t117 -30.5q86 0 124 29.5t38 101.5q0 68 -38 98.5t-122 30.5q-82 0 -118 -30.5t-36 -98.5z" />
<glyph unicode="&#x120;" horiz-adv-x="1218" d="M82 711q0 387 127 557t432 170q96 0 217 -14.5t195 -30.5l73 -15l-8 -243q-246 27 -432 26q-184 0 -248.5 -90t-64.5 -360q0 -272 59.5 -366.5t245.5 -94.5l170 8v240h-127v252h405v-727q-293 -47 -475 -48q-317 0 -443 179.5t-126 556.5zM492 1612v276h274v-276h-274z " />
<glyph unicode="&#x121;" horiz-adv-x="1101" d="M72 -186q0 133 145 245q-74 51 -74 154q0 23 20.5 63.5t41.5 71.5l18 29q-139 100 -139 305q0 186 117.5 274t312.5 88q41 0 92 -6t82 -14l33 -6l315 6v-219h-129q35 -61 35 -123q0 -205 -104.5 -282.5t-327.5 -77.5q-47 0 -84 8q-20 -53 -20 -80q0 -41 35.5 -54.5 t162.5 -13.5q258 0 352.5 -67.5t94.5 -241.5q0 -186 -135.5 -275.5t-350.5 -89.5q-246 0 -369.5 65t-123.5 241zM342 -158q0 -88 225 -88q207 0 207 103q0 55 -37 70.5t-155 17.5l-185 14q-55 -56 -55 -117zM358 682q0 -70 35 -100.5t117 -30.5q86 0 124 29.5t38 101.5 q0 68 -38 98.5t-122 30.5q-82 0 -118 -30.5t-36 -98.5zM414 1139v276h274v-276h-274z" />
<glyph unicode="&#x122;" horiz-adv-x="1218" d="M82 711q0 387 127 557t432 170q96 0 217 -14.5t195 -30.5l73 -15l-8 -243q-246 27 -432 26q-184 0 -248.5 -90t-64.5 -360q0 -272 59.5 -366.5t245.5 -94.5l170 8v240h-127v252h405v-727q-293 -47 -475 -48q-317 0 -443 179.5t-126 556.5zM426 -637l94 479h266l-112 -479 h-248z" />
<glyph unicode="&#x123;" horiz-adv-x="1101" d="M72 -186q0 133 145 245q-74 51 -74 154q0 23 20.5 63.5t41.5 71.5l18 29q-139 100 -139 305q0 186 117.5 274t312.5 88q41 0 92 -6t82 -14l33 -6l315 6v-219h-129q35 -61 35 -123q0 -205 -104.5 -282.5t-327.5 -77.5q-47 0 -84 8q-20 -53 -20 -80q0 -41 35.5 -54.5 t162.5 -13.5q258 0 352.5 -67.5t94.5 -241.5q0 -186 -135.5 -275.5t-350.5 -89.5q-246 0 -369.5 65t-123.5 241zM342 -158q0 -88 225 -88q207 0 207 103q0 55 -37 70.5t-155 17.5l-185 14q-55 -56 -55 -117zM344 1194l113 479h248l-95 -479h-266zM358 682q0 -70 35 -100.5 t117 -30.5q86 0 124 29.5t38 101.5q0 68 -38 98.5t-122 30.5q-82 0 -118 -30.5t-36 -98.5z" />
<glyph unicode="&#x124;" horiz-adv-x="1357" d="M143 0v1413h283v-557h518v557h283v-1413h-283v584h-518v-584h-283zM291 1595l268 306h252l268 -306h-307l-84 88l-84 -88h-313z" />
<glyph unicode="&#x125;" horiz-adv-x="1148" d="M137 0v1434h275v-441q158 53 254 54q205 0 282.5 -124t77.5 -386v-537h-274v537q0 129 -29 191.5t-115 62.5l-196 -25v-766h-275zM195 1536l268 352h221l270 -352h-292l-87 125l-88 -125h-292z" />
<glyph unicode="&#x126;" horiz-adv-x="1357" d="M23 995v238h120v180h283v-180h518v180h283v-180h135v-238h-135v-995h-283v584h-518v-584h-283v995h-120zM426 856h518v139h-518v-139z" />
<glyph unicode="&#x127;" horiz-adv-x="1148" d="M35 1090v237h102v107h275v-107h293v-237h-293v-97q158 53 254 54q205 0 282.5 -124t77.5 -386v-537h-274v537q0 129 -29 191.5t-115 62.5l-196 -25v-766h-275v1090h-102z" />
<glyph unicode="&#x128;" horiz-adv-x="569" d="M-109 1782q12 14 34 35.5t79 58.5t107 37q72 0 196.5 -44t145.5 -44q53 0 168 80l59 -209q-12 -14 -33.5 -36t-79 -57.5t-106.5 -35.5q-57 0 -187.5 45t-158.5 45q-25 0 -66 -20.5t-69 -41.5l-29 -20zM143 0v1413h283v-1413h-283z" />
<glyph unicode="&#x129;" horiz-adv-x="548" d="M-115 1411q12 14 34 35.5t79 58.5t106 37q72 0 176.5 -44t125.5 -44q53 0 167 80l60 -207q-12 -14 -33.5 -35.5t-79 -57.5t-106.5 -36q-57 0 -167 45t-138 45q-25 0 -66 -20.5t-70 -40.5l-28 -21zM137 0v1022h275v-1022h-275z" />
<glyph unicode="&#x12a;" horiz-adv-x="569" d="M-70 1665v238h711v-238h-711zM143 0v1413h283v-1413h-283z" />
<glyph unicode="&#x12b;" horiz-adv-x="548" d="M-59 1274v237h669v-237h-669zM137 0v1022h275v-1022h-275z" />
<glyph unicode="&#x12c;" horiz-adv-x="569" d="M-96 1905h284q16 -80 97 -80q84 0 98 80h285q-16 -139 -111.5 -224.5t-271.5 -85.5t-270.5 85.5t-110.5 224.5zM143 0v1413h283v-1413h-283z" />
<glyph unicode="&#x12d;" horiz-adv-x="548" d="M-123 1532h285q14 -90 112 -90q100 0 113 90h285q-16 -154 -115.5 -244t-282 -90t-282 90t-115.5 244zM137 0v1022h275v-1022h-275z" />
<glyph unicode="&#x12e;" horiz-adv-x="569" d="M33 -246q0 139 135 246h-25v1413h283v-1413h-4q-102 -86 -103 -156q0 -51 41 -51l78 6l27 -219q-121 -23 -209 -22q-98 0 -160.5 53t-62.5 143z" />
<glyph unicode="&#x12f;" horiz-adv-x="548" d="M-1290 0v1022h274v-1022h-274zM-1290 1155v281h274v-281h-274zM18 -246q0 74 42 141.5t83 96.5l41 31l228 -21q-106 -86 -107 -158q0 -51 41 -51l78 6l27 -219q-121 -23 -209 -22q-98 0 -161 53t-63 143z" />
<glyph unicode="&#x130;" horiz-adv-x="569" d="M143 0v1413h283v-1413h-283zM147 1591v277h275v-277h-275z" />
<glyph unicode="&#x131;" horiz-adv-x="534" d="M137 0v1022h275v-1022h-275z" />
<glyph unicode="&#x134;" horiz-adv-x="643" d="M-66 1595l269 306h252l268 -306h-307l-84 88l-84 -88h-314zM61 119q156 0 156 131v1163h281q0 -217 1 -587.5t1 -590t-99.5 -299t-339.5 -79.5v262z" />
<glyph unicode="&#x135;" horiz-adv-x="555" d="M-84 1188l268 352h222l270 -352h-293l-86 125l-88 -125h-293zM-70 -281q137 84 175 131.5t38 161.5v1010h275v-1012q0 -209 -73 -308t-292 -210z" />
<glyph unicode="&#x136;" horiz-adv-x="1214" d="M143 0v1413h283v-606l184 20l230 586h325l-303 -702l312 -711h-326l-234 555l-188 -20v-535h-283zM399 -637l95 479h266l-113 -479h-248z" />
<glyph unicode="&#x137;" horiz-adv-x="1060" d="M137 0v1434h275v-801l104 20l203 369h307l-264 -483l278 -539h-309l-209 385l-110 -20v-365h-275zM352 -637l94 479h267l-113 -479h-248z" />
<glyph unicode="&#x139;" horiz-adv-x="993" d="M143 0v1413h283v-1141h510v-272h-793zM197 1790l526 188l90 -260l-534 -159z" />
<glyph unicode="&#x13a;" horiz-adv-x="548" d="M-33 1831l527 188l90 -260l-535 -160zM137 0v1434h275v-1434h-275z" />
<glyph unicode="&#x13b;" horiz-adv-x="997" d="M143 0v1413h283v-1141h510v-272h-793zM315 -637l95 479h266l-113 -479h-248z" />
<glyph unicode="&#x13c;" horiz-adv-x="548" d="M45 -637l94 479h267l-113 -479h-248zM137 0v1434h275v-1434h-275z" />
<glyph unicode="&#x13d;" horiz-adv-x="997" d="M143 0v1413h283v-1141h510v-272h-793zM670 881v532h266v-532h-266z" />
<glyph unicode="&#x13e;" horiz-adv-x="997" d="M137 0v1434h275v-1434h-275zM586 881v532h266v-532h-266z" />
<glyph unicode="&#x141;" horiz-adv-x="997" d="M-76 569l219 154v690h283v-493l203 143l133 -184l-336 -236v-371h510v-272h-793v444l-86 -59z" />
<glyph unicode="&#x142;" horiz-adv-x="786" d="M18 559l238 166v709h274v-516l129 90l134 -185l-263 -184v-639h-274v446l-104 -71z" />
<glyph unicode="&#x143;" horiz-adv-x="1435" d="M143 0v1413h445l391 -1057h31v1057h282v-1413h-430l-405 1057h-31v-1057h-283zM410 1790l526 188l90 -260l-534 -159z" />
<glyph unicode="&#x144;" horiz-adv-x="1148" d="M137 0v1022h275v-45q158 70 254 70q205 0 282.5 -124t77.5 -388v-535h-274v535q0 131 -29 193.5t-115 62.5q-31 0 -80 -8.5t-82 -16.5l-34 -10v-756h-275zM266 1401l527 188l90 -260l-535 -160z" />
<glyph unicode="&#x145;" horiz-adv-x="1435" d="M143 0v1413h445l391 -1057h31v1057h282v-1413h-430l-405 1057h-31v-1057h-283zM537 -637l94 479h266l-113 -479h-247z" />
<glyph unicode="&#x146;" horiz-adv-x="1148" d="M137 0v1022h275v-45q158 70 254 70q205 0 282.5 -124t77.5 -388v-535h-274v535q0 131 -29 193.5t-115 62.5q-31 0 -80 -8.5t-82 -16.5l-34 -10v-756h-275zM387 -637l94 479h267l-113 -479h-248z" />
<glyph unicode="&#x147;" horiz-adv-x="1435" d="M143 0v1413h445l391 -1057h31v1057h282v-1413h-430l-405 1057h-31v-1057h-283zM322 1903h313l84 -95l84 95h307l-268 -304h-248z" />
<glyph unicode="&#x148;" horiz-adv-x="1148" d="M137 0v1022h275v-45q158 70 254 70q205 0 282.5 -124t77.5 -388v-535h-274v535q0 131 -29 193.5t-115 62.5q-31 0 -80 -8.5t-82 -16.5l-34 -10v-756h-275zM195 1540h294l86 -123l84 123h295l-266 -352h-229z" />
<glyph unicode="&#x14a;" horiz-adv-x="1435" d="M143 0v1413h445l391 -1057h31v1057h282v-1075v-393q0 -219 -99 -299t-339 -80v262q156 0 156 131v41h-148l-405 1057h-31v-1057h-283z" />
<glyph unicode="&#x14b;" horiz-adv-x="1148" d="M135 0v1022h275v-45q168 70 264 70q190 0 271 -132.5t81 -379.5v-525q0 -215 -68.5 -313t-295.5 -205l-123 227q141 78 177 124t36 157v535q0 262 -136 262q-31 0 -82 -9.5t-88 -17.5l-36 -10v-760h-275z" />
<glyph unicode="&#x14c;" horiz-adv-x="1318" d="M82 696q0 375 131 558.5t446.5 183.5t446.5 -183.5t131 -558.5q0 -371 -130 -546t-447.5 -175t-447.5 175t-130 546zM303 1642v238h711v-238h-711zM373 696q0 -240 60.5 -344t226 -104t226 104.5t60.5 343.5q0 244 -61.5 356.5t-225 112.5t-225 -112.5t-61.5 -356.5z" />
<glyph unicode="&#x14d;" d="M72 512q0 254 108.5 394.5t362.5 140.5t362.5 -140.5t108.5 -394.5t-108.5 -395.5t-362.5 -141.5t-362.5 141.5t-108.5 395.5zM207 1274v237h670v-237h-670zM350 512q0 -150 42 -219.5t150.5 -69.5t150.5 69.5t42 219.5t-42 218.5t-150.5 68.5t-150.5 -68.5t-42 -218.5z " />
<glyph unicode="&#x14e;" horiz-adv-x="1318" d="M82 696q0 375 131 558.5t446.5 183.5t446.5 -183.5t131 -558.5q0 -371 -130 -546t-447.5 -175t-447.5 175t-130 546zM279 1905h284q16 -80 96 -80q84 0 99 80h284q-16 -139 -111 -224.5t-271.5 -85.5t-270.5 85.5t-110 224.5zM373 696q0 -240 60.5 -344t226 -104 t226 104.5t60.5 343.5q0 244 -61.5 356.5t-225 112.5t-225 -112.5t-61.5 -356.5z" />
<glyph unicode="&#x14f;" d="M72 512q0 254 108.5 394.5t362.5 140.5t362.5 -140.5t108.5 -394.5t-108.5 -395.5t-362.5 -141.5t-362.5 141.5t-108.5 395.5zM145 1532h285q14 -90 113 -90q100 0 112 90h285q-16 -154 -115.5 -244t-282 -90t-282 90t-115.5 244zM350 512q0 -150 42 -219.5t150.5 -69.5 t150.5 69.5t42 219.5t-42 218.5t-150.5 68.5t-150.5 -68.5t-42 -218.5z" />
<glyph unicode="&#x150;" horiz-adv-x="1318" d="M82 696q0 375 131 558.5t446.5 183.5t446.5 -183.5t131 -558.5q0 -371 -130 -546t-447.5 -175t-447.5 175t-130 546zM293 1610l137 403l258 -92l-160 -391zM373 696q0 -240 60.5 -344t226 -104t226 104.5t60.5 343.5q0 244 -61.5 356.5t-225 112.5t-225 -112.5 t-61.5 -356.5zM739 1608l138 403l258 -92l-160 -391z" />
<glyph unicode="&#x151;" d="M72 512q0 254 108.5 394.5t362.5 140.5t362.5 -140.5t108.5 -394.5t-108.5 -395.5t-362.5 -141.5t-362.5 141.5t-108.5 395.5zM102 1286l240 387l223 -135l-256 -385zM350 512q0 -150 42 -219.5t150.5 -69.5t150.5 69.5t42 219.5t-42 218.5t-150.5 68.5t-150.5 -68.5 t-42 -218.5zM520 1286l240 389l223 -137l-256 -385z" />
<glyph unicode="&#x152;" horiz-adv-x="1933" d="M123 707q0 401 119.5 566t412.5 165q88 0 240 -25h897v-270h-618v-293h495v-268h-495v-312h618v-270h-893q-156 -25 -244 -25q-309 0 -420.5 171.5t-111.5 560.5zM414 707q0 -268 56 -360.5t235 -92.5q51 0 190 12v881q-143 12 -199 12q-113 0 -171 -36t-84.5 -133 t-26.5 -283z" />
<glyph unicode="&#x153;" horiz-adv-x="1794" d="M119 512q0 254 108.5 394.5t362.5 140.5q215 0 332 -111q115 111 313 111q446 0 446 -461l-20 -193h-602q2 -88 49 -127t158 -39l379 19l4 -213q-236 -57 -426 -58q-209 0 -314 99q-115 -98 -319 -99q-254 0 -362.5 141.5t-108.5 395.5zM397 512q0 -150 42 -219.5 t150.5 -69.5t150.5 69.5t42 219.5t-42 218.5t-150.5 68.5t-150.5 -68.5t-42 -218.5zM1057 604h354q0 109 -40 154t-136 45t-137 -48.5t-41 -150.5z" />
<glyph unicode="&#x154;" horiz-adv-x="1253" d="M143 0v1413h541q254 0 373 -110.5t119 -358.5q0 -274 -205 -403l198 -541h-309l-164 457h-270v-457h-283zM317 1790l527 188l90 -260l-535 -159zM426 725h262q199 0 199 215q0 205 -203 205h-258v-420z" />
<glyph unicode="&#x155;" horiz-adv-x="737" d="M61 1401l527 188l90 -260l-535 -160zM137 0v1022h275v-96q123 90 284 121v-295q-80 -16 -151.5 -38t-102.5 -36l-30 -14v-664h-275z" />
<glyph unicode="&#x156;" horiz-adv-x="1257" d="M143 0v1413h541q254 0 373 -110.5t119 -358.5q0 -274 -205 -403l198 -541h-309l-164 457h-270v-457h-283zM426 725h262q199 0 199 215q0 205 -203 205h-258v-420zM438 -637l94 479h267l-113 -479h-248z" />
<glyph unicode="&#x157;" horiz-adv-x="737" d="M39 -637l94 479h266l-112 -479h-248zM137 0v1022h275v-96q123 90 284 121v-295q-80 -16 -151.5 -38t-102.5 -36l-30 -14v-664h-275z" />
<glyph unicode="&#x158;" horiz-adv-x="1253" d="M143 0v1413h541q254 0 373 -110.5t119 -358.5q0 -274 -205 -403l198 -541h-309l-164 457h-270v-457h-283zM231 1905h314l84 -95l84 95h307l-268 -303h-248zM426 725h262q199 0 199 215q0 205 -203 205h-258v-420z" />
<glyph unicode="&#x159;" horiz-adv-x="737" d="M-10 1540h295l86 -123l84 123h295l-267 -352h-229zM137 0v1022h275v-96q123 90 284 121v-295q-80 -16 -151.5 -38t-102.5 -36l-30 -14v-664h-275z" />
<glyph unicode="&#x15a;" d="M61 1022q0 201 134.5 308.5t369.5 107.5q70 0 177.5 -14.5t179.5 -26.5l73 -15l-22 -252q-289 33 -408 33q-223 0 -223 -137q0 -66 55.5 -102.5t233.5 -92.5q229 -74 311 -159.5t82 -265.5q0 -209 -135 -320t-361 -111q-156 0 -430 58l29 252q254 -35 399 -35 q115 0 166 34.5t51 114.5q0 66 -51 104t-198 81q-240 70 -336.5 165t-96.5 273zM254 1790l526 188l90 -260l-534 -159z" />
<glyph unicode="&#x15b;" horiz-adv-x="1017" d="M96 713q0 168 111.5 251t286.5 83q66 0 165 -13.5t164 -25.5l68 -13l-4 -229q-254 33 -373 33q-86 0 -114.5 -18.5t-28.5 -61.5q0 -35 36.5 -50.5t155.5 -33.5q205 -33 282 -102.5t77 -225.5q0 -332 -414 -332l-393 50l8 231q254 -33 358 -33q94 0 130 18.5t36 59.5 q0 35 -30.5 51.5t-135.5 34.5q-213 37 -299 102.5t-86 223.5zM201 1401l526 188l90 -260l-534 -160z" />
<glyph unicode="&#x15c;" d="M61 1022q0 201 134.5 308.5t369.5 107.5q70 0 177.5 -14.5t179.5 -26.5l73 -15l-22 -252q-289 33 -408 33q-223 0 -223 -137q0 -66 55.5 -102.5t233.5 -92.5q229 -74 311 -159.5t82 -265.5q0 -209 -135 -320t-361 -111q-156 0 -430 58l29 252q254 -35 399 -35 q115 0 166 34.5t51 114.5q0 66 -51 104t-198 81q-240 70 -336.5 165t-96.5 273zM168 1608l268 305h252l268 -305h-307l-84 88l-84 -88h-313z" />
<glyph unicode="&#x15d;" horiz-adv-x="1017" d="M96 713q0 168 111.5 251t286.5 83q66 0 165 -13.5t164 -25.5l68 -13l-4 -229q-254 33 -373 33q-86 0 -114.5 -18.5t-28.5 -61.5q0 -35 36.5 -50.5t155.5 -33.5q205 -33 282 -102.5t77 -225.5q0 -332 -414 -332l-393 50l8 231q254 -33 358 -33q94 0 130 18.5t36 59.5 q0 35 -30.5 51.5t-135.5 34.5q-213 37 -299 102.5t-86 223.5zM129 1188l268 352h221l271 -352h-293l-86 125l-88 -125h-293z" />
<glyph unicode="&#x15e;" d="M61 1022q0 201 134.5 308.5t369.5 107.5q70 0 177.5 -14.5t179.5 -26.5l73 -15l-22 -252q-289 33 -408 33q-223 0 -223 -137q0 -66 55.5 -102.5t233.5 -92.5q229 -74 311 -159.5t82 -265.5q0 -186 -108.5 -295t-292.5 -129v-58q131 -2 191 -39t60 -145q0 -117 -59 -175.5 t-168 -58.5q-39 0 -87 5.5t-77 11.5l-26 6l8 160q63 -2 98 -2q78 0 78 53q0 45 -78 45h-49v190q-70 2 -174 16.5t-172 28.5l-70 13l29 252q254 -35 399 -35q115 0 166 34.5t51 114.5q0 66 -51 104t-198 81q-240 70 -336.5 165t-96.5 273z" />
<glyph unicode="&#x15f;" horiz-adv-x="1017" d="M96 713q0 168 111.5 251t286.5 83q66 0 165 -13.5t164 -25.5l68 -13l-4 -229q-254 33 -373 33q-86 0 -114.5 -18.5t-28.5 -61.5q0 -35 36.5 -50.5t155.5 -33.5q205 -33 282 -102.5t77 -225.5q0 -317 -373 -330v-53q131 -2 191.5 -39t60.5 -145q0 -117 -59.5 -175.5 t-168.5 -58.5q-39 0 -87 5.5t-76 11.5l-27 6l8 160q63 -2 98 -2q78 0 78 53q0 45 -78 45h-49v195q-66 4 -146.5 15t-129.5 21l-49 9l8 231q254 -33 358 -33q94 0 130 18.5t36 59.5q0 35 -30.5 51.5t-135.5 34.5q-213 37 -299 102.5t-86 223.5z" />
<glyph unicode="&#x160;" d="M61 1022q0 201 134.5 308.5t369.5 107.5q70 0 177.5 -14.5t179.5 -26.5l73 -15l-22 -252q-289 33 -408 33q-223 0 -223 -137q0 -66 55.5 -102.5t233.5 -92.5q229 -74 311 -159.5t82 -265.5q0 -209 -135 -320t-361 -111q-156 0 -430 58l29 252q254 -35 399 -35 q115 0 166 34.5t51 114.5q0 66 -51 104t-198 81q-240 70 -336.5 165t-96.5 273zM172 1905h313l84 -95l84 95h308l-269 -303h-248z" />
<glyph unicode="&#x161;" horiz-adv-x="1017" d="M96 713q0 168 111.5 251t286.5 83q66 0 165 -13.5t164 -25.5l68 -13l-4 -229q-254 33 -373 33q-86 0 -114.5 -18.5t-28.5 -61.5q0 -35 36.5 -50.5t155.5 -33.5q205 -33 282 -102.5t77 -225.5q0 -332 -414 -332l-393 50l8 231q254 -33 358 -33q94 0 130 18.5t36 59.5 q0 35 -30.5 51.5t-135.5 34.5q-213 37 -299 102.5t-86 223.5zM152 1540h294l86 -123l84 123h295l-266 -352h-229z" />
<glyph unicode="&#x162;" horiz-adv-x="983" d="M-20 1141v272h1024v-272h-369v-1141h-283v1141h-372zM311 -637l95 479h266l-113 -479h-248z" />
<glyph unicode="&#x163;" horiz-adv-x="731" d="M31 774v248h121v287h274v-287h252v-248h-252v-387q0 -61 3 -87t22.5 -44t60.5 -18l156 4l12 -236q-137 -31 -209 -31q-184 0 -251.5 83t-67.5 307v409h-121zM176 -637l94 479h267l-113 -479h-248z" />
<glyph unicode="&#x164;" horiz-adv-x="983" d="M-20 1141v272h1024v-272h-369v-1141h-283v1141h-372zM96 1905h314l84 -95l84 95h307l-269 -303h-247z" />
<glyph unicode="&#x165;" horiz-adv-x="1038" d="M31 774v248h121v287h274v-287h252v-248h-252v-387q0 -61 3 -87t22.5 -44t60.5 -18l156 4l12 -236q-137 -31 -209 -31q-184 0 -251.5 83t-67.5 307v409h-121zM752 881v532h266v-532h-266z" />
<glyph unicode="&#x166;" horiz-adv-x="983" d="M-20 1141v272h1024v-272h-369v-385h285v-238h-285v-518h-283v518h-270v238h270v385h-372z" />
<glyph unicode="&#x167;" horiz-adv-x="731" d="M31 774v248h121v287h274v-287h252v-248h-252v-139h-274v139h-121zM53 397v238h99v-238h-99zM152 365v32h274v-10q0 -61 3 -87t22.5 -44t60.5 -18l156 4l12 -236q-137 -31 -209 -31q-184 0 -251.5 83.5t-67.5 306.5zM426 397v238h231v-238h-231z" />
<glyph unicode="&#x168;" horiz-adv-x="1323" d="M123 471v942h283v-942q0 -117 64.5 -165t182.5 -48q248 0 248 213v942h283v-942q0 -256 -132 -372.5t-398.5 -116.5t-398.5 116.5t-132 372.5zM246 1802q12 14 33.5 36t79 58.5t106.5 36.5q72 0 196.5 -44t145.5 -44q53 0 168 80l59 -209q-12 -14 -33.5 -35.5t-79 -57.5 t-106.5 -36q-57 0 -187 45t-159 45q-25 0 -66 -20.5t-69 -40.5l-29 -21z" />
<glyph unicode="&#x169;" horiz-adv-x="1148" d="M123 487v535h274v-535q0 -156 23.5 -210t120.5 -54q31 0 80 9.5t84 17.5l32 8v764h275v-1022h-275v43q-160 -68 -254 -68q-215 0 -287.5 116.5t-72.5 395.5zM184 1411q12 14 34 35.5t79 58.5t106 37q72 0 176.5 -44t125.5 -44q53 0 167 80l60 -207q-12 -14 -33.5 -35.5 t-79 -57.5t-106.5 -36q-57 0 -167 45t-138 45q-25 0 -66 -20.5t-70 -40.5l-28 -21z" />
<glyph unicode="&#x16a;" horiz-adv-x="1323" d="M123 471v942h283v-942q0 -117 64.5 -165t182.5 -48q248 0 248 213v942h283v-942q0 -256 -132 -372.5t-398.5 -116.5t-398.5 116.5t-132 372.5zM305 1642v238h711v-238h-711z" />
<glyph unicode="&#x16b;" horiz-adv-x="1148" d="M123 487v535h274v-535q0 -156 23.5 -210t120.5 -54q31 0 80 9.5t84 17.5l32 8v764h275v-1022h-275v43q-160 -68 -254 -68q-215 0 -287.5 116.5t-72.5 395.5zM240 1274v237h669v-237h-669z" />
<glyph unicode="&#x16c;" horiz-adv-x="1323" d="M123 471v942h283v-942q0 -117 64.5 -165t182.5 -48q248 0 248 213v942h283v-942q0 -256 -132 -372.5t-398.5 -116.5t-398.5 116.5t-132 372.5zM281 1905h284q16 -80 97 -80q84 0 98 80h284q-16 -139 -111 -224.5t-271.5 -85.5t-270.5 85.5t-110 224.5z" />
<glyph unicode="&#x16d;" horiz-adv-x="1148" d="M123 487v535h274v-535q0 -156 23.5 -210t120.5 -54q31 0 80 9.5t84 17.5l32 8v764h275v-1022h-275v43q-160 -68 -254 -68q-215 0 -287.5 116.5t-72.5 395.5zM176 1532h285q14 -90 112 -90q100 0 113 90h285q-16 -154 -115.5 -244t-282 -90t-282 90t-115.5 244z" />
<glyph unicode="&#x16e;" horiz-adv-x="1323" d="M123 471v942h283v-942q0 -117 64.5 -165t182.5 -48q248 0 248 213v942h283v-942q0 -256 -132 -372.5t-398.5 -116.5t-398.5 116.5t-132 372.5zM354 1718q0 121 88 189.5t219.5 68.5t219.5 -68.5t88 -189.5t-88 -189.5t-219.5 -68.5t-219.5 68.5t-88 189.5zM565 1718.5 q0 -30.5 25.5 -49t71 -18.5t71 18.5t25.5 49t-25.5 49t-71 18.5t-71 -18.5t-25.5 -49z" />
<glyph unicode="&#x16f;" horiz-adv-x="1148" d="M123 487v535h274v-535q0 -156 23.5 -210t120.5 -54q31 0 80 9.5t84 17.5l32 8v764h275v-1022h-275v43q-160 -68 -254 -68q-215 0 -287.5 116.5t-72.5 395.5zM334 1307q0 100 68.5 169.5t170.5 69.5q100 0 170 -69.5t70 -169.5q0 -102 -69.5 -171t-170.5 -69 q-102 0 -170.5 69t-68.5 171zM512 1307q0 -29 18.5 -46.5t45 -17.5t44 18.5t17.5 45t-17.5 44t-44 17.5t-45 -17t-18.5 -44z" />
<glyph unicode="&#x170;" horiz-adv-x="1323" d="M123 471v942h283v-942q0 -117 64.5 -165t182.5 -48q248 0 248 213v942h283v-942q0 -256 -132 -372.5t-398.5 -116.5t-398.5 116.5t-132 372.5zM276 1610l138 403l258 -92l-160 -391zM723 1608l137 403l258 -92l-160 -391z" />
<glyph unicode="&#x171;" horiz-adv-x="1148" d="M123 487v535h274v-535q0 -156 23.5 -210t120.5 -54q31 0 80 9.5t84 17.5l32 8v764h275v-1022h-275v43q-160 -68 -254 -68q-215 0 -287.5 116.5t-72.5 395.5zM203 1286l239 387l224 -135l-256 -385zM621 1286l239 389l223 -137l-256 -385z" />
<glyph unicode="&#x172;" horiz-adv-x="1323" d="M123 471v942h283v-942q0 -117 64.5 -165t182.5 -48q248 0 248 213v942h283v-942q0 -391 -326 -469h12q-106 -86 -106 -158q0 -51 41 -51l78 6l26 -219q-121 -23 -209 -22q-98 0 -160.5 53t-62.5 143q0 125 115 230q-236 12 -352.5 128.5t-116.5 358.5z" />
<glyph unicode="&#x173;" horiz-adv-x="1148" d="M123 487v535h274v-535q0 -156 23.5 -210t120.5 -54q31 0 80 9.5t84 17.5l32 8v764h275v-1022h-13l5 2l-228 21q-12 -8 -31 -23h-8v43q-160 -68 -254 -68q-215 0 -287.5 116.5t-72.5 395.5zM610 -246q0 139 135 246h254q-102 -86 -102 -156q0 -51 41 -51l78 6l26 -219 q-121 -23 -208 -22q-98 0 -161 53t-63 143z" />
<glyph unicode="&#x174;" horiz-adv-x="1927" d="M49 1413h297l213 -1122h31l213 1122h321l213 -1122h31l213 1122h297l-315 -1413h-420l-180 997l-179 -997h-419zM567 1608l269 305h251l269 -305h-307l-84 88l-84 -88h-314z" />
<glyph unicode="&#x175;" horiz-adv-x="1536" d="M25 1022h270l125 -774h49l156 756h286l156 -756h49l125 774h270l-190 -1022h-440l-115 627l-117 -627h-434zM389 1188l268 352h222l270 -352h-293l-86 125l-88 -125h-293z" />
<glyph unicode="&#x176;" horiz-adv-x="1169" d="M20 1413h314l252 -493l250 493h313l-420 -811v-602h-283v604zM188 1608l269 305h252l268 -305h-307l-84 88l-84 -88h-314z" />
<glyph unicode="&#x177;" horiz-adv-x="993" d="M16 1022h271l186 -754h47l187 754h270l-359 -1450h-270l105 428h-185zM117 1188l268 352h221l271 -352h-293l-86 125l-88 -125h-293z" />
<glyph unicode="&#x178;" horiz-adv-x="1169" d="M20 1413h314l252 -493l250 493h313l-420 -811v-602h-283v604zM236 1626v270h262v-270h-262zM690 1626v270h262v-270h-262z" />
<glyph unicode="&#x179;" horiz-adv-x="1167" d="M123 0v272l559 838v31h-559v272h921v-272l-559 -838v-31h559v-272h-921zM274 1790l527 188l90 -260l-535 -159z" />
<glyph unicode="&#x17a;" horiz-adv-x="976" d="M109 0v248l430 528h-430v248h759v-248l-430 -528h430v-248h-759zM160 1401l526 188l90 -260l-534 -160z" />
<glyph unicode="&#x17b;" horiz-adv-x="1167" d="M123 0v272l559 838v31h-559v272h921v-272l-559 -838v-31h559v-272h-921zM446 1591v277h275v-277h-275z" />
<glyph unicode="&#x17c;" horiz-adv-x="976" d="M109 0v248l430 528h-430v248h759v-248l-430 -528h430v-248h-759zM350 1139v276h275v-276h-275z" />
<glyph unicode="&#x17d;" horiz-adv-x="1167" d="M123 0v272l559 838v31h-559v272h921v-272l-559 -838v-31h559v-272h-921zM213 1905h313l84 -95l84 95h307l-268 -303h-248z" />
<glyph unicode="&#x17e;" horiz-adv-x="976" d="M92 1540h295l86 -123l84 123h295l-266 -352h-230zM109 0v248l430 528h-430v248h759v-248l-430 -528h430v-248h-759z" />
<glyph unicode="&#x192;" d="M143 -264l37 -2q35 0 81 -2t71 -2q104 0 104 135v909h-110v248h110v47q0 221 64.5 303t234.5 82q39 0 90 -6l30 -4l29 -4l26 -4q13 -2 22.5 -3t17.5 -2t13 -1l2 -3v-223q-90 4 -156 4q-57 0 -77.5 -31.5t-20.5 -109.5v-45h247v-248h-247v-909q0 -205 -96.5 -286 t-282.5 -81q-33 0 -80 7.5t-78 13.5l-31 6v211z" />
<glyph unicode="&#x1fa;" horiz-adv-x="1239" d="M41 0l301 1360q-27 53 -27 117q0 121 88.5 189.5t219.5 68.5t219 -69t88 -189q0 -66 -29 -117l297 -1360h-283l-63 238h-475l-53 -238h-283zM291 1995l526 188l90 -260l-534 -160zM436 510h363l-133 643h-93zM526 1477q0 -51 60 -64h73q59 12 60 64q0 31 -25.5 49 t-70.5 18t-71 -18t-26 -49z" />
<glyph unicode="&#x1fb;" horiz-adv-x="1081" d="M82 311q0 164 87 233.5t269 82.5l221 14v51q0 41 -28.5 66.5t-73.5 25.5l-397 -16l-8 233q160 27 301 39q-70 25 -112 85.5t-42 140.5q0 100 68.5 169.5t171.5 69.5q100 0 169.5 -69.5t69.5 -169.5q0 -76 -41 -136.5t-106 -87.5q152 -10 227.5 -93t75.5 -255v-379 q0 -59 12 -78.5t53 -27.5l-8 -234q-123 0 -178 15.5t-113 54.5q-172 -70 -313 -70q-150 0 -227.5 89t-77.5 247zM231 1812l527 189l90 -260l-535 -160zM358 319q0 -109 84 -108q37 0 91.5 7t89.5 15l36 9v190l-186 -8q-115 -7 -115 -105zM477 1266q0 -29 17.5 -46.5 t46.5 -17.5q27 0 44 18.5t17 45t-17.5 44t-44 17.5t-45 -17t-18.5 -44z" />
<glyph unicode="&#x1fc;" horiz-adv-x="1658" d="M98 0l377 1413h1299v-270h-619v-293h496v-268h-496v-312h619v-270h-897v238h-437l-59 -238h-283zM510 510h367l2 633h-205zM520 1790l527 188l90 -260l-535 -159z" />
<glyph unicode="&#x1fd;" horiz-adv-x="1695" d="M106 311q0 164 89.5 234.5t267.5 81.5l221 14v51q0 41 -28.5 66.5t-73.5 25.5q-68 0 -167.5 -5t-164.5 -11l-66 -6l-8 239q272 45 422 46q176 0 264 -76q106 76 273 76q446 0 446 -461l-20 -193h-603q2 -88 49.5 -127t157.5 -39l379 19l4 -213q-236 -57 -426 -58 q-209 0 -313 99l-47 -23q-172 -76 -350 -76q-150 0 -228 89t-78 247zM383 319q0 -109 84 -108q37 0 91 7t89 15l37 9q0 33 -1 96t-1 94l-184 -8q-115 -7 -115 -105zM559 1401l526 188l91 -260l-535 -160zM958 604h353q0 109 -40 154t-136 45q-98 0 -137.5 -47.5 t-39.5 -151.5z" />
<glyph unicode="&#x1fe;" horiz-adv-x="1343" d="M82 696q0 375 131 558.5t446 183.5q96 0 189 -21l117 250l256 -94l-138 -293q154 -174 154 -584q0 -371 -130 -546t-448 -175q-94 0 -176 17l-118 -256l-248 112l125 269q-160 161 -160 579zM326 1790l526 188l90 -260l-534 -159zM373 696q0 -160 22 -250l332 713 q-31 6 -68 6q-164 0 -225 -112.5t-61 -356.5zM604 250q16 -2 55 -2q166 0 226.5 104.5t60.5 343.5q0 147 -20 244z" />
<glyph unicode="&#x1ff;" d="M72 512q0 254 108.5 394.5t362.5 140.5q57 0 114 -11l82 207l166 -61l-84 -203q193 -121 193 -467q0 -254 -108.5 -395.5t-362.5 -141.5q-72 0 -129 13l-84 -209l-164 61l86 209q-180 123 -180 463zM233 1401l527 188l90 -260l-535 -160zM350 512q0 -125 25 -188l188 473 q-2 0 -10 1t-10 1q-109 0 -151 -68.5t-42 -218.5zM506 225q12 -2 37 -2q109 0 150.5 69.5t41.5 219.5q0 135 -33 199z" />
<glyph unicode="&#x218;" d="M61 1022q0 201 134.5 308.5t369.5 107.5q70 0 177.5 -14.5t179.5 -26.5l73 -15l-22 -252q-289 33 -408 33q-223 0 -223 -137q0 -66 55.5 -102.5t233.5 -92.5q229 -74 311 -159.5t82 -265.5q0 -209 -135 -320t-361 -111q-156 0 -430 58l29 252q254 -35 399 -35 q115 0 166 34.5t51 114.5q0 66 -51 104t-198 81q-240 70 -336.5 165t-96.5 273zM324 -637l94 479h266l-113 -479h-247z" />
<glyph unicode="&#x219;" horiz-adv-x="1017" d="M96 713q0 168 111.5 251t286.5 83q66 0 165 -13.5t164 -25.5l68 -13l-4 -229q-254 33 -373 33q-86 0 -114.5 -18.5t-28.5 -61.5q0 -35 36.5 -50.5t155.5 -33.5q205 -33 282 -102.5t77 -225.5q0 -332 -414 -332l-393 50l8 231q254 -33 358 -33q94 0 130 18.5t36 59.5 q0 35 -30.5 51.5t-135.5 34.5q-213 37 -299 102.5t-86 223.5zM328 -637l94 479h266l-113 -479h-247z" />
<glyph unicode="&#x2c6;" horiz-adv-x="548" d="M-84 1188l268 352h222l270 -352h-293l-86 125l-88 -125h-293z" />
<glyph unicode="&#x2c7;" horiz-adv-x="548" d="M-72 1540h295l86 -123l84 123h295l-266 -352h-229z" />
<glyph unicode="&#x2d8;" horiz-adv-x="548" d="M-102 1532h284q14 -90 113 -90q100 0 113 90h284q-16 -154 -115.5 -244t-281.5 -90t-281.5 90t-115.5 244z" />
<glyph unicode="&#x2d9;" horiz-adv-x="548" d="M137 1139v276h275v-276h-275z" />
<glyph unicode="&#x2da;" horiz-adv-x="548" d="M41 1307q0 100 68.5 169.5t171.5 69.5q100 0 169.5 -69.5t69.5 -169.5q0 -102 -69.5 -171t-169.5 -69q-102 0 -171 69t-69 171zM219 1307q0 -29 17.5 -46.5t46.5 -17.5q27 0 44 18.5t17 45t-17.5 44t-44 17.5t-45 -17t-18.5 -44z" />
<glyph unicode="&#x2db;" horiz-adv-x="970" d="M449 -246q0 74 41.5 141.5t82.5 96.5l41 31l228 -21q-106 -86 -107 -158q0 -51 41 -51l78 6l27 -219q-121 -23 -209 -22q-98 0 -160.5 53t-62.5 143z" />
<glyph unicode="&#x2dc;" horiz-adv-x="548" d="M-72 1411q12 14 34 35.5t79 58.5t106 37q72 0 176.5 -44t125.5 -44q53 0 167 80l60 -207q-12 -14 -33.5 -35.5t-79 -57.5t-106.5 -36q-57 0 -167 45t-138 45q-25 0 -66 -20.5t-70 -40.5l-28 -21z" />
<glyph unicode="&#x2dd;" horiz-adv-x="548" d="M-102 1286l239 387l223 -135l-256 -385zM315 1286l240 389l223 -137l-256 -385z" />
<glyph unicode="&#x300;" horiz-adv-x="548" d="M12 1343l84 244l527 -188l-76 -215z" />
<glyph unicode="&#x301;" horiz-adv-x="548" d="M-23 1401l527 188l90 -260l-535 -160z" />
<glyph unicode="&#x302;" horiz-adv-x="548" d="M-61 1188l268 352h221l270 -352h-292l-87 125l-88 -125h-292z" />
<glyph unicode="&#x303;" horiz-adv-x="548" d="M-72 1411q12 14 34 35.5t79 58.5t106 37q72 0 176.5 -44t125.5 -44q53 0 167 80l60 -207q-12 -14 -33.5 -35.5t-79 -57.5t-106.5 -36q-57 0 -167 45t-138 45q-25 0 -66 -20.5t-70 -40.5l-28 -21z" />
<glyph unicode="&#x304;" horiz-adv-x="548" d="M-51 1274v237h669v-237h-669z" />
<glyph unicode="&#x306;" horiz-adv-x="548" d="M-102 1532h284q14 -90 113 -90q100 0 113 90h284q-16 -154 -115.5 -244t-281.5 -90t-281.5 90t-115.5 244z" />
<glyph unicode="&#x307;" horiz-adv-x="548" d="M137 1139v276h275v-276h-275z" />
<glyph unicode="&#x308;" horiz-adv-x="548" d="M-61 1241v270h262v-270h-262zM381 1241v270h262v-270h-262z" />
<glyph unicode="&#x30a;" horiz-adv-x="548" d="M51 1307q0 100 68.5 169.5t171.5 69.5q100 0 169.5 -69.5t69.5 -169.5q0 -102 -69.5 -171t-169.5 -69q-102 0 -171 69t-69 171zM229 1307q0 -29 18.5 -46.5t45 -17.5t44 18.5t17.5 45t-17.5 44t-44 17.5t-45 -17t-18.5 -44z" />
<glyph unicode="&#x30b;" horiz-adv-x="548" d="M-102 1286l239 387l223 -135l-256 -385zM315 1286l240 389l223 -137l-256 -385z" />
<glyph unicode="&#x30c;" horiz-adv-x="548" d="M-92 1540h295l86 -123l84 123h295l-267 -352h-229z" />
<glyph unicode="&#x312;" horiz-adv-x="348" d="M-10 1194l112 479h248l-94 -479h-266z" />
<glyph unicode="&#x315;" horiz-adv-x="358" d="M35 881v532h266v-532h-266z" />
<glyph unicode="&#x326;" horiz-adv-x="348" d="M-10 -637l94 479h266l-112 -479h-248z" />
<glyph unicode="&#x327;" horiz-adv-x="1705" d="M745 -471l9 160q63 -2 98 -2q78 0 78 53q0 45 -78 45h-49v217h108v-78q131 -2 191.5 -39t60.5 -145q0 -117 -59.5 -175.5t-167.5 -58.5q-39 0 -87 5.5t-75 11.5z" />
<glyph unicode="&#x328;" horiz-adv-x="970" d="M449 -246q0 74 41.5 141.5t82.5 96.5l41 31l228 -21q-106 -86 -107 -158q0 -51 41 -51l78 6l27 -219q-121 -23 -209 -22q-98 0 -160.5 53t-62.5 143z" />
<glyph unicode="&#x394;" d="M61 0v233l254 1180h461l252 -1184v-229h-967zM344 254h404l-183 905h-37z" />
<glyph unicode="&#x2206;" d="M61 0v233l254 1180h461l252 -1184v-229h-967zM344 254h404l-183 905h-37z" />
<glyph unicode="&#x3a9;" d="M57 758q0 330 111 472t375 142t374.5 -142.5t110.5 -471.5q0 -133 -41 -266.5t-82 -198.5l-39 -66h144v-245h-426v225q18 29 44.5 78t71.5 183t45 249q0 211 -40.5 305t-161.5 94q-129 0 -166 -90t-37 -309q0 -115 41 -242t82 -196l39 -72v-225h-426v245h143 q-18 27 -45 73t-72 185.5t-45 272.5z" />
<glyph unicode="&#x2126;" d="M57 758q0 330 111 472t375 142t374.5 -142.5t110.5 -471.5q0 -133 -41 -266.5t-82 -198.5l-39 -66h144v-245h-426v225q18 29 44.5 78t71.5 183t45 249q0 211 -40.5 305t-161.5 94q-129 0 -166 -90t-37 -309q0 -115 41 -242t82 -196l39 -72v-225h-426v245h143 q-18 27 -45 73t-72 185.5t-45 272.5z" />
<glyph unicode="&#x3c0;" d="M8 758v239q51 10 128 16.5t128 8.5l51 2h443q195 0 295 33v-240q-49 -25 -152 -31v-471q0 -55 28.5 -77.5t112.5 -22.5v-235q-139 0 -221 15t-126 58t-57 100.5t-13 161.5v469h-172l-54 -784h-276l53 784z" />
<glyph unicode="&#x1e80;" horiz-adv-x="1927" d="M49 1413h297l213 -1122h31l213 1122h321l213 -1122h31l213 1122h297l-315 -1413h-420l-180 997l-179 -997h-419zM700 1696l91 260l526 -189l-82 -231z" />
<glyph unicode="&#x1e81;" horiz-adv-x="1536" d="M25 1022h270l125 -774h49l156 756h286l156 -756h49l125 774h270l-190 -1022h-440l-115 627l-117 -627h-434zM465 1343l84 244l526 -188l-76 -215z" />
<glyph unicode="&#x1e82;" horiz-adv-x="1927" d="M49 1413h297l213 -1122h31l213 1122h321l213 -1122h31l213 1122h297l-315 -1413h-420l-180 997l-179 -997h-419zM655 1790l527 188l90 -260l-535 -159z" />
<glyph unicode="&#x1e83;" horiz-adv-x="1536" d="M25 1022h270l125 -774h49l156 756h286l156 -756h49l125 774h270l-190 -1022h-440l-115 627l-117 -627h-434zM459 1401l526 188l90 -260l-534 -160z" />
<glyph unicode="&#x1e84;" horiz-adv-x="1927" d="M49 1413h297l213 -1122h31l213 1122h321l213 -1122h31l213 1122h297l-315 -1413h-420l-180 997l-179 -997h-419zM604 1626v270h262v-270h-262zM1059 1626v270h262v-270h-262z" />
<glyph unicode="&#x1e85;" horiz-adv-x="1536" d="M25 1022h270l125 -774h49l156 756h286l156 -756h49l125 774h270l-190 -1022h-440l-115 627l-117 -627h-434zM416 1241v270h262v-270h-262zM858 1241v270h262v-270h-262z" />
<glyph unicode="&#x1eab;" horiz-adv-x="1081" d="M82 311q0 164 87 233.5t269 82.5l221 14v51q0 41 -28.5 66.5t-73.5 25.5l-397 -16l-8 233q272 45 421 46q180 0 270.5 -81t90.5 -272v-379q0 -59 12 -78.5t53 -27.5l-8 -234q-123 0 -178 15.5t-113 54.5q-172 -70 -313 -70q-150 0 -227.5 89t-77.5 247zM121 1739 q12 14 33.5 35.5t79 58.5t106.5 37q72 0 176.5 -44t124.5 -44q53 0 168 80l59 -207q-12 -14 -33.5 -36t-79 -57.5t-106.5 -35.5q-57 0 -166.5 45t-138.5 45q-25 0 -65.5 -20.5t-69.5 -41.5l-29 -20zM123 1126l268 353h221l271 -353h-293l-86 125l-88 -125h-293zM358 319 q0 -109 84 -108q37 0 91.5 7t89.5 15l36 9v190l-186 -8q-115 -7 -115 -105z" />
<glyph unicode="&#x1eb0;" horiz-adv-x="1239" d="M41 0l313 1413h537l307 -1413h-283l-63 238h-475l-53 -238h-283zM215 2083l84 244l526 -189l-75 -215zM248 1823h284q16 -80 97 -80q84 0 98 80h285q-16 -139 -111.5 -224.5t-271.5 -85.5t-270.5 85.5t-110.5 224.5zM436 510h363l-133 643h-93z" />
<glyph unicode="&#x1ec5;" horiz-adv-x="1038" d="M72 498q0 549 452 549q446 0 447 -461l-21 -193h-602q2 -88 49 -127t158 -39l379 19l4 -213q-236 -57 -426 -58q-231 0 -335.5 123.5t-104.5 399.5zM139 1739q12 14 34 35.5t79 58.5t106 37q72 0 176.5 -44t124.5 -44q53 0 168 80l60 -207q-12 -14 -34 -36t-79 -57.5 t-106 -35.5q-57 0 -167 45t-139 45q-25 0 -65.5 -20.5t-69.5 -41.5l-28 -20zM156 1126l268 353h221l270 -353h-292l-86 125l-88 -125h-293zM346 604h354q0 109 -39.5 154t-136 45t-136.5 -47.5t-42 -151.5z" />
<glyph unicode="&#x1ed7;" d="M72 512q0 254 108.5 394.5t362.5 140.5t362.5 -140.5t108.5 -394.5t-108.5 -395.5t-362.5 -141.5t-362.5 141.5t-108.5 395.5zM141 1739q12 14 34 35.5t79 58.5t106 37q72 0 176.5 -44t125.5 -44q53 0 167 80l60 -207q-12 -14 -33.5 -36t-79 -57.5t-106.5 -35.5 q-57 0 -167 45t-138 45q-25 0 -66 -20.5t-70 -41.5l-28 -20zM164 1126l268 353h221l271 -353h-293l-86 125l-88 -125h-293zM350 512q0 -150 42 -219.5t150.5 -69.5t150.5 69.5t42 219.5t-42 218.5t-150.5 68.5t-150.5 -68.5t-42 -218.5z" />
<glyph unicode="&#x1ef2;" horiz-adv-x="1169" d="M20 1413h314l252 -493l250 493h313l-420 -811v-602h-283v604zM322 1696l90 260l526 -189l-82 -231z" />
<glyph unicode="&#x1ef3;" horiz-adv-x="993" d="M16 1022h271l186 -754h47l187 754h270l-359 -1450h-270l105 428h-185zM195 1343l84 244l526 -188l-76 -215z" />
<glyph unicode="&#x1ef8;" horiz-adv-x="1169" d="M20 1413h314l252 -493l250 493h313l-420 -811v-602h-283v604zM205 1802q12 14 33.5 36t79 58.5t106.5 36.5q72 0 176.5 -44t124.5 -44q53 0 168 80l59 -207q-12 -14 -33.5 -35.5t-79 -57.5t-106.5 -36q-57 0 -166.5 45t-138.5 45q-25 0 -65.5 -20.5t-69.5 -40.5l-29 -21z " />
<glyph unicode="&#x1ef9;" horiz-adv-x="993" d="M16 1022h271l186 -754h47l187 754h270l-359 -1450h-270l105 428h-185zM117 1411q12 14 33.5 35.5t79 58.5t106.5 37q72 0 176 -44t125 -44q53 0 168 80l59 -207q-12 -14 -33.5 -35.5t-79 -57.5t-106.5 -36q-57 0 -166.5 45t-138.5 45q-25 0 -66 -20.5t-69 -40.5l-29 -21z " />
<glyph unicode="&#x2013;" horiz-adv-x="1024" d="M0 436v250h1024v-250h-1024z" />
<glyph unicode="&#x2014;" horiz-adv-x="2048" d="M0 436v250h2048v-250h-2048z" />
<glyph unicode="&#x2018;" horiz-adv-x="348" d="M-45 983l119 506h264l-102 -506h-281z" />
<glyph unicode="&#x2019;" horiz-adv-x="348" d="M8 1079l103 506h278l-117 -506h-264z" />
<glyph unicode="&#x201a;" horiz-adv-x="458" d="M-6 -266l119 506h264l-103 -506h-280z" />
<glyph unicode="&#x201c;" d="M184 983l119 506h264l-102 -506h-281zM524 983l119 506h264l-102 -506h-281z" />
<glyph unicode="&#x201d;" d="M184 973l103 506h278l-119 -506h-262zM539 973l102 506h281l-119 -506h-264z" />
<glyph unicode="&#x201e;" horiz-adv-x="952" d="M-6 -266l119 506h264l-103 -506h-280zM446 -266l119 506h264l-102 -506h-281z" />
<glyph unicode="&#x2020;" d="M109 748v270h299v352h270v-352h299v-270h-299v-893h-270v893h-299z" />
<glyph unicode="&#x2021;" d="M109 207v270h299v271h-299v270h299v352h270v-352h297v-270h-297v-271h299v-270h-299v-352h-270v352h-299z" />
<glyph unicode="&#x2022;" d="M297 205v573h491v-573h-491z" />
<glyph unicode="&#x2026;" horiz-adv-x="1523" d="M111 0v340h295v-340h-295zM633 0v340h295v-340h-295zM1155 0v340h295v-340h-295z" />
<glyph unicode="&#x2030;" horiz-adv-x="1705" d="M12 1139q0 297 246 297t246 -297q0 -299 -246 -299t-246 299zM213 1138.5q0 -73.5 9 -104t36 -30.5t36 30.5t9 104t-9 103.5t-36 30t-36 -30t-9 -103.5zM274 -4l394 1479l176 -48l-393 -1476zM610 299q0 297 246 297t246 -297q0 -299 -246 -299t-246 299zM811 299 q0 -74 9 -104.5t36 -30.5t36 30.5t9 104.5t-9 103.5t-36 29.5t-36 -29.5t-9 -103.5zM1137 299q0 297 245.5 297t245.5 -297q0 -299 -245.5 -299t-245.5 299zM1337 299q0 -74 9.5 -104.5t36 -30.5t35.5 30.5t9 104.5t-9 103.5t-35.5 29.5t-36 -29.5t-9.5 -103.5z" />
<glyph unicode="&#x2039;" horiz-adv-x="825" d="M184 397v197l457 336v-277l-223 -153l223 -176v-277z" />
<glyph unicode="&#x203a;" horiz-adv-x="825" d="M184 68v276l224 176l-224 154v276l457 -336v-196z" />
<glyph unicode="&#x2070;" horiz-adv-x="542" d="M10 1294q0 190 64.5 268t200 78t200 -77.5t64.5 -268.5q0 -188 -63.5 -263t-201 -75t-201 75t-63.5 263zM236 1294.5q0 -65.5 5 -97.5t12 -39t21 -7q23 0 31 24.5t8 118.5q0 96 -8 124t-31 28q-14 0 -22 -9.5t-12 -43t-4 -99z" />
<glyph unicode="&#x2074;" horiz-adv-x="542" d="M20 1051v180l80 387h242l-106 -373h55l28 185h187v-185h22v-194h-22v-72h-215v72h-271z" />
<glyph unicode="&#x2075;" horiz-adv-x="542" d="M37 993l16 174q115 -18 191 -18q51 0 51 31q0 33 -29 32l-53 -8l-160 23l23 391h424v-184h-254l-6 -52q57 12 90 13q190 0 190 -203q0 -227 -241 -227q-47 0 -107.5 7t-97.5 15z" />
<glyph unicode="&#x2076;" horiz-adv-x="542" d="M18 1274q0 182 62.5 274t218.5 92q33 0 86 -6t90 -12l37 -6l-12 -178q-135 12 -193 12q-68 0 -67 -53l12 2q12 2 32.5 5t32.5 3q111 0 162 -53.5t51 -161.5q0 -111 -68.5 -173.5t-174.5 -62.5q-269 1 -269 318zM240 1214q0 -70 36 -69q35 0 35 43t-32 43q-10 0 -20.5 -4 t-14.5 -8z" />
<glyph unicode="&#x2077;" horiz-adv-x="542" d="M43 1403v215h465v-207l-195 -453l-247 39l186 379v27h-209z" />
<glyph unicode="&#x2078;" horiz-adv-x="542" d="M10 1171q0 90 66 142q-55 41 -56 145q0 182 252 182q254 0 254 -184q0 -92 -55 -145q6 -4 17.5 -13.5t29 -45t17.5 -81.5q0 -117 -66 -166t-197 -49q-133 0 -197.5 49t-64.5 166zM233 1176q0 -45 39 -45.5t39 45.5q0 27 -24 51h-29q-25 -24 -25 -51zM236 1427 q0 -25 22 -51h29q23 27 22 51q0 39 -36.5 39t-36.5 -39z" />
<glyph unicode="&#x2079;" horiz-adv-x="542" d="M18 1403q0 113 66 175t178 62q268 0 268 -337q0 -178 -61 -262.5t-207 -84.5q-43 0 -98 7.5t-90 15.5l-33 6l12 178q100 -12 178 -12q68 0 68 47l-10 -2q-10 -2 -28.5 -4t-33.5 -2q-209 0 -209 213zM238 1403q0 -45 32 -45l39 12q0 80 -39 80q-32 0 -32 -47z" />
<glyph unicode="&#x2080;" horiz-adv-x="542" d="M10 315q0 190 64.5 268.5t200 78.5t200 -78t64.5 -269q0 -188 -63.5 -263t-201 -75t-201 75t-63.5 263zM236 315.5q0 -65.5 5 -97.5t12 -39t21 -7q23 0 31 24.5t8 118.5q0 96 -8 124t-31 28q-14 0 -22 -9t-12 -43t-4 -99.5z" />
<glyph unicode="&#x2081;" horiz-adv-x="542" d="M33 485l217 154h196v-639h-217v399l-96 -65z" />
<glyph unicode="&#x2082;" horiz-adv-x="542" d="M29 0v184l149 121q94 76 94 117q0 31 -75 31l-156 -13l-8 203q150 18 241 19q125 0 176.5 -47.5t51.5 -157.5q0 -68 -26.5 -114t-88.5 -91l-78 -57h193v-195h-473z" />
<glyph unicode="&#x2083;" horiz-adv-x="542" d="M41 -6l12 190q125 -12 193 -12q59 0 59 33q0 29 -53 28h-135v175h131q41 0 41 28q0 31 -56 31l-172 -10l-12 186q139 18 221 19q248 0 248 -183q0 -109 -59 -143q72 -31 71 -150q0 -104 -63.5 -156.5t-177.5 -52.5z" />
<glyph unicode="&#x2084;" horiz-adv-x="542" d="M20 72v180l80 387h242l-106 -373h55l28 185h187v-185h22v-194h-22v-72h-215v72h-271z" />
<glyph unicode="&#x2085;" horiz-adv-x="542" d="M37 14l16 174q115 -18 191 -18q51 0 51 31q0 33 -29 32l-53 -8l-160 23l23 391h424v-184h-254l-6 -52q57 12 90 13q190 0 190 -203q0 -227 -241 -227q-47 0 -107.5 7t-97.5 15z" />
<glyph unicode="&#x2086;" horiz-adv-x="542" d="M18 295q0 182 62.5 274.5t218.5 92.5q33 0 86 -6.5t90 -12.5l37 -6l-12 -178q-135 12 -193 12q-68 0 -67 -53l12 2q12 2 32.5 5t32.5 3q111 0 162 -53t51 -162q0 -111 -68.5 -173.5t-174.5 -62.5q-269 1 -269 318zM240 236q0 -70 36 -70q35 0 35 43t-32 43 q-10 0 -20.5 -4t-14.5 -8z" />
<glyph unicode="&#x2087;" horiz-adv-x="542" d="M43 424v215h465v-207l-195 -452l-247 38l186 379v27h-209z" />
<glyph unicode="&#x2088;" horiz-adv-x="542" d="M10 193q0 90 66 141q-55 41 -56 145q0 182 252 183q254 0 254 -185q0 -92 -55 -145q6 -4 17.5 -13.5t29 -45t17.5 -80.5q0 -117 -66 -166.5t-197 -49.5q-133 0 -197.5 49.5t-64.5 166.5zM233 197q0 -45 39 -45t39 45q0 27 -24 51h-29q-25 -24 -25 -51zM236 449 q0 -25 22 -52h29q23 27 22 52q0 39 -36.5 39t-36.5 -39z" />
<glyph unicode="&#x2089;" horiz-adv-x="542" d="M18 424q0 113 66 175.5t178 62.5q268 0 268 -338q0 -178 -61 -262.5t-207 -84.5q-43 0 -98 7.5t-90 15.5l-33 6l12 178q100 -12 178 -12q68 0 68 47l-10 -2q-10 -2 -28.5 -4t-33.5 -2q-209 0 -209 213zM238 424q0 -45 32 -45l39 12q0 80 -39 80q-32 0 -32 -47z" />
<glyph unicode="&#x20ac;" horiz-adv-x="1214" d="M139 389v213h109v131h-109v213h123q31 238 144.5 334t353.5 96q78 0 169 -10t144 -18l53 -11l-8 -247q-207 8 -317 8q-115 0 -168 -31t-76 -123h428v-211h-446v-131h446v-213h-426q23 -80 78 -107.5t172 -27.5l309 10l6 -254q-203 -35 -364 -35q-246 0 -356.5 96.5 t-141.5 317.5h-123z" />
<glyph unicode="&#x2122;" d="M14 1157v162h410v-162h-84v-477h-180v477h-146zM475 678v641h211l84 -324l92 324h209v-641h-168v356l-69 -313h-113l-78 313v-356h-168z" />
<glyph unicode="&#x2211;" horiz-adv-x="1705" />
<glyph unicode="&#x2212;" d="M104 428v250h873v-250h-873z" />
<glyph unicode="&#x221e;" horiz-adv-x="1095" d="M59 596q0 352 281 352q74 0 121 -25.5t86 -88.5q37 63 84 88.5t123 25.5q281 0 280.5 -350t-284.5 -350q-74 0 -119 25.5t-84 86.5q-37 -61 -84 -86.5t-119 -25.5q-285 0 -285 348zM309 596q0 -92 53 -92q8 0 14.5 1t12.5 6t10 9t10.5 14.5l10.5 16.5t12 21.5t12 25.5 q-39 78 -55 88q-10 6 -27 6q-53 0 -53 -96zM649 598q4 -10 12.5 -25.5t12.5 -21.5t10 -16.5t10 -14.5t10.5 -9t12.5 -6t14 -1q53 0 53 92q0 96 -53 96q-25 0 -38 -16.5t-36 -59.5q-4 -12 -8 -18z" />
<glyph unicode="&#x2248;" d="M119 420q12 12 34.5 30.5t91 48t134.5 29.5q53 0 183 -45t179 -45q35 0 87.5 20.5t86.5 41.5l35 18l17 -256q-10 -12 -31 -30.5t-83 -48t-124 -29.5q-57 0 -194.5 45t-172.5 45q-98 0 -223 -82zM119 870q12 12 34.5 31t91 48.5t134.5 29.5q53 0 183 -45t179 -45 q35 0 87.5 20.5t86.5 40.5l35 19l17 -256q-10 -12 -31 -30.5t-83 -48.5t-124 -30q-57 0 -194.5 45t-172.5 45q-98 0 -223 -82z" />
<glyph unicode="&#x2260;" d="M43 238v249h311l86 195h-397v250h506l133 299l221 -88l-94 -211h207v-250h-316l-86 -195h402v-249h-510l-129 -293l-221 88l90 205h-203z" />
<glyph unicode="&#x2264;" d="M129 0v270h813v-270h-813zM129 532v369l813 209v-287l-543 -102l543 -109v-286z" />
<glyph unicode="&#x2265;" d="M143 0v270h834v-270h-834zM143 326v286l564 109l-564 102v287l834 -209v-369z" />
<glyph unicode="&#xe000;" horiz-adv-x="1020" d="M0 1020h1020v-1020h-1020v1020z" />
<glyph horiz-adv-x="481" />
<glyph horiz-adv-x="1101" d="M207 0v1495h72v-534q170 82 352 81q203 0 275.5 -115.5t72.5 -391.5q0 -301 -96.5 -427t-370.5 -126zM279 59q160 -12 231 -12q127 0 206 27.5t120 93t54 147.5t13 215q0 244 -54 345.5t-218 101.5q-82 0 -170 -20.5t-135 -41.5l-47 -20v-836z" />
<glyph horiz-adv-x="1284" d="M211 0v1434h491q209 0 311.5 -84t102.5 -265q0 -272 -198 -346q254 -70 253 -338q0 -221 -110.5 -311t-319.5 -90h-530zM285 70h456q170 0 262.5 74.5t92.5 256.5q0 297 -371 297h-440v-628zM285 766h440q164 0 239.5 80t75.5 239q0 147 -81.5 213t-256.5 66h-417v-598z " />
<glyph horiz-adv-x="983" d="M72 1024h75l299 -958h89l301 958h75l-321 -1024h-201z" />
<glyph horiz-adv-x="933" d="M78 0l346 512l-346 512h82l307 -457l307 457h82l-346 -512l346 -512h-84l-305 457l-305 -457h-84z" />
<glyph d="M94 690q0 369 130 525.5t374 156.5l328 -39l-8 -67q-147 37 -320 37q-209 0 -317.5 -135.5t-108.5 -446.5q0 4 57.5 31.5t155.5 57.5t178 30q428 0 428 -414q0 -444 -438 -444q-236 0 -347.5 178t-111.5 530zM170 649q4 -299 94 -448.5t289 -149.5q195 0 277.5 92.5 t82.5 282.5q0 166 -79.5 255t-274.5 89q-180 -6 -385 -119z" />
<glyph d="M96 928q0 211 113 327.5t334 116.5q231 0 339.5 -177t108.5 -531q0 -371 -123 -526.5t-364 -155.5q-76 0 -164 11t-139 21l-49 11l12 65q168 -39 340 -39q207 0 309 138.5t102 453.5q0 -4 -57 -31.5t-155.5 -57.5t-178.5 -30q-217 0 -322.5 109t-105.5 295zM174 928 q0 -152 86 -243t268 -91q180 6 385 119l5 2q-10 588 -375 588q-369 0 -369 -375z" />
<glyph horiz-adv-x="1337" d="M211 0v1434h586q121 0 209 -72t130 -186.5t60 -223t18 -215.5q0 -80 -7 -159.5t-32.5 -189t-67.5 -191.5t-123 -139.5t-187 -57.5h-586zM285 70h512q90 0 157.5 57t101.5 133t53 180.5t23.5 169t4.5 127.5q0 70 -14.5 161t-47.5 203.5t-105.5 187.5t-172.5 75h-512v-1294 z" />
<glyph d="M211 0v1434h74v-1364h698v-70h-772z" />
<glyph horiz-adv-x="0" />
<glyph d="M59 1165q0 143 52.5 208t164.5 65q111 0 164.5 -64.5t53.5 -210.5q0 -283 -218 -282q-111 0 -164 68.5t-53 215.5zM131 1165q0 -111 33 -165t112 -54q82 0 114 53.5t32 163.5q0 109 -32 159t-114 50q-80 0 -112.5 -50.5t-32.5 -156.5zM381 12l295 1424l74 -15l-295 -1423 zM635 285q0 143 52 207.5t165 64.5q111 0 164 -64.5t53 -209.5q0 -283 -217 -283q-111 0 -164 69t-53 216zM707 285q0 -111 32.5 -165t112.5 -54q82 0 113.5 53t31.5 164q0 109 -31.5 159t-113.5 50q-80 0 -112.5 -50.5t-32.5 -156.5z" />
<glyph d="M279 938l225 164l-223 164l41 55l225 -166l86 264l65 -20l-86 -266h277v-70h-281l86 -264l-65 -21l-86 266l-226 -161z" />
<glyph horiz-adv-x="532" d="M10 616.5q0 182.5 50.5 411.5t99.5 369l49 139h72q-23 -59 -54.5 -158.5t-86 -344.5t-54.5 -417q0 -342 178 -829l17 -43h-72q-23 51 -55.5 139t-88 319.5t-55.5 414z" />
<glyph horiz-adv-x="532" d="M-8 -246q23 59 54.5 158.5t85.5 344.5t54 417q0 342 -178 829l-16 43h71q23 -51 56 -139t88 -319.5t55 -413.5t-49 -411.5t-98 -368.5l-52 -140h-71z" />
<glyph horiz-adv-x="583" d="M0 602v66q117 29 165 86t48 159q0 27 -7 124.5t-7 138.5q0 184 83 269t277 93l4 -65q-168 -8 -230.5 -79t-62.5 -218q0 -35 7.5 -125t7.5 -119q0 -133 -45 -195.5t-160 -99.5q115 -37 160 -100.5t45 -190.5l-15 -237q0 -147 62.5 -218t230.5 -79l-4 -66q-195 8 -277.5 93 t-82.5 270q0 43 7 136t7 115q0 100 -48 154.5t-165 87.5z" />
<glyph horiz-adv-x="1933" d="M123 711q0 377 118.5 559t430.5 182q221 0 301 -18h837v-74h-763v-586h641v-74h-641v-626h763v-74h-833v-2q-72 -16 -305 -16q-164 0 -272.5 45t-169 142t-84 225.5t-23.5 316.5zM201 711q0 -174 18.5 -287t68.5 -202t144 -130t240 -41q217 0 301 19v1288q-80 25 -301 24 q-143 0 -237.5 -43t-144.5 -134t-69.5 -206.5t-19.5 -287.5zM973 1358l2 -680v680h-2z" />
<glyph horiz-adv-x="1705" d="M469 434v66h379v477h-379v65h379v392h72v-392h378v-65h-378v-477h378v-66h-378v-434h-72v434h-379z" />
<glyph horiz-adv-x="790" d="M10 1397q229 55 340 55q203 0 306.5 -74.5t103.5 -249.5q0 -92 -42 -173t-101.5 -139l-120 -111.5t-102.5 -114t-42 -123.5v-78h-71v84q0 70 42 136.5t102 121.5l120 113q59 57 101 131t42 153q0 141 -83 198.5t-255 57.5l-330 -57zM276 2v164h82v-164h-82z" />
<glyph horiz-adv-x="288" d="M51 0v164h82v-164h-82zM51 705v163h82v-163h-82z" />
<glyph horiz-adv-x="348" d="M-12 -252l84 430h86l-107 -430h-63zM66 705v163h81v-163h-81z" />
<glyph horiz-adv-x="614" d="M98 1534h375v-66h-301v-1654h301v-66h-373z" />
<glyph horiz-adv-x="614" d="M104 -186h302v1654h-302v66h375l-2 -1786h-373v66z" />
<glyph horiz-adv-x="204" d="M-41 1413h244l-10 -471h-230z" />
<glyph horiz-adv-x="727" d="M68 1413h243l-10 -471h-229zM391 1413h244l-10 -471h-230z" />
<glyph horiz-adv-x="1433" d="M78 426q0 182 77.5 271t256.5 141q-66 72 -85.5 133t-19.5 155q0 133 80 214t234 81q160 0 236.5 -79.5t76.5 -217.5q0 -147 -78 -230t-260 -142l383 -379q41 119 63 299h72q-29 -221 -80 -353l287 -280l-49 -53l-268 266q-135 -270 -455 -270q-258 0 -364.5 112.5 t-106.5 331.5zM150 428q0 -190 94 -284.5t309 -94.5q281 0 397 254l-485 481q-176 -47 -245.5 -122.5t-69.5 -233.5zM379 1126q0 -160 92 -252l74 -73q178 61 247.5 128.5t69.5 196.5q0 229 -241.5 229t-241.5 -229z" />
<glyph horiz-adv-x="1167" d="M233 0v70h189v696h-141v65h141v195q0 213 66.5 290t213.5 77l246 -25v-65q-178 25 -246 24q-111 0 -159.5 -62.5t-48.5 -238.5v-195h372v-65h-372v-696h356l168 32l14 -65l-166 -35z" />
<glyph horiz-adv-x="1214" d="M139 502v69h127q-2 33 -2 107q0 86 2 127h-127v69h131q20 262 131 387t373 125q195 0 359 -38l-7 -72q-186 41 -352 41q-227 0 -318 -106.5t-108 -336.5l637 -2v-67h-641q-2 -41 -2 -127q0 -74 2 -107l641 -2v-67h-639q16 -236 107.5 -343.5t320.5 -107.5l352 41l7 -69 q-197 -41 -359 -41q-262 0 -373.5 124.5t-130.5 395.5h-131z" />
<glyph horiz-adv-x="1705" d="M504 1407l71 29l617 -1407l-72 -29z" />
<glyph horiz-adv-x="1064" d="M55 -70h877v-69h-877v69z" />
<glyph horiz-adv-x="1259" d="M211 0v1434h522q217 0 320.5 -102.5t103.5 -330.5q0 -229 -96 -352t-328 -123h-448v-526h-74zM285 596h448q346 0 346 405q0 188 -85 275.5t-261 87.5h-448v-768z" />
<glyph d="M6 684v74h688v-74h-688zM309 285v164h82v-164h-82zM309 989v164h82v-164h-82z" />
<glyph horiz-adv-x="839" d="M-100 479v70h475v475h74v-475h479v-70h-479v-479h-74v479h-475z" />
<glyph horiz-adv-x="901" d="M123 541v69h655v-69h-655z" />
<glyph d="M129 602v74l711 469v-80l-645 -422l645 -444v-84q-641 436 -711 487z" />
<glyph d="M2 702v70h1034v-70h-1034zM4 356v70h1034v-70h-1034z" />
<glyph d="M129 115v84l645 444l-645 422v80l711 -469v-74z" />
<glyph d="M94 25l568 1413l67 -29l-567 -1411z" />
<glyph horiz-adv-x="1794" d="M123 535q0 283 95 395t325 112q299 0 377 -245q90 246 372 245q195 0 292 -116.5t97 -374.5v-68h-727q0 -221 70 -328.5t242 -107.5l372 19l4 -66q-229 -18 -378 -18q-268 2 -346 219q-37 -115 -125 -167t-250 -52q-250 0 -335 119t-85 434zM199 535q0 -143 11 -226.5 t48 -148t104.5 -89t180.5 -24.5q111 0 179.5 27.5t102 94.5t44 146.5t10.5 214.5q0 242 -81 344.5t-255 102.5q-199 0 -271.5 -93t-72.5 -349zM954 549h652q0 231 -75 329.5t-239 98.5q-338 0 -338 -428z" />
<glyph horiz-adv-x="1839" d="M72 0l514 1434h1130v-70h-764v-590h641v-69h-641v-635h764v-70h-837v440h-566l-159 -440h-82zM338 510h541v854h-236z" />
<glyph horiz-adv-x="1343" d="M94 711q0 377 119 559t430 182q168 0 287 -57l106 227l68 -29l-113 -237q111 -86 156 -244t45 -401q0 -391 -115.5 -560t-433.5 -169q-162 0 -274 47l-119 -256l-68 26l123 264q-117 78 -164 236t-47 412zM172 711q0 -229 36 -368.5t130 -211.5l559 1196q-98 55 -254 55 q-143 0 -237.5 -43t-144.5 -134t-69.5 -206.5t-19.5 -287.5zM399 94q96 -43 244 -43t241 38t143 125t68.5 201.5t18.5 295.5q0 430 -156 573z" />
<glyph horiz-adv-x="1695" d="M113 281q0 143 63.5 206.5t218.5 87.5l389 41v107q0 250 -227 250l-385 -19l-4 68q225 20 389 20q236 0 285 -196q100 197 352 196q195 0 292 -116.5t97 -374.5v-68h-727q0 -221 69.5 -328.5t241.5 -107.5l373 19l4 -66q-229 -18 -379 -18q-203 2 -293 118l-77 -32 q-190 -86 -422 -86q-260 0 -260 299zM188 281q0 -113 49.5 -173.5t137.5 -60.5q86 0 198.5 24.5t173 45t95.5 35.5q-61 121 -62 360v37l-377 -37q-113 -10 -164 -65t-51 -166zM856 549h651q0 231 -74.5 329.5t-238.5 98.5q-338 0 -338 -428z" />
<glyph d="M74 498q0 289 127 416.5t338 127.5t338 -128t127 -416q0 -287 -124 -401.5t-341 -114.5t-341 114.5t-124 401.5zM330 498q0 -162 50 -221.5t158.5 -59.5t159 59.5t50.5 221.5q0 180 -50.5 244.5t-159 64.5t-158.5 -64.5t-50 -244.5z" />
<glyph d="M152 776l436 248h215v-1024h-256v727l-301 -158z" />
<glyph d="M145 0v223l261 187q160 113 216 171t56 117.5t-48 79t-171 19.5q-31 0 -105 -7l-133 -14q-59 -6 -59 -8l-17 233q246 41 408 41q401 0 401 -305q0 -125 -59 -201.5t-209 -181.5l-170 -118h451v-236h-822z" />
<glyph d="M174 27l31 233q225 -23 391 -22q88 0 120 21.5t32 68.5q0 76 -160 75h-271v226h269q131 0 131 88q0 82 -133 82q-80 0 -172.5 -6.5l-145.5 -10.5l-51 -6l-25 230q236 39 392 38q193 0 292 -58t99 -195q0 -168 -131 -244q162 -72 162 -246q0 -160 -113 -239.5t-295 -79.5 q-76 0 -181.5 11t-172.5 23z" />
<glyph d="M131 168v184l258 672h273l-250 -610h250v233h256v-233h83v-246h-83v-168h-256v168h-531z" />
<glyph d="M121 47l31 234q258 -49 409 -50q162 0 162 86q0 102 -168 103l-201 -43l-202 39l45 616h768v-270h-535l-24 -137q90 37 186 37q201 0 307.5 -84t106.5 -244q0 -164 -112 -258t-323 -94q-182 -1 -450 65z" />
<glyph d="M119 520q0 272 130 397t337 125l370 -30l-18 -213q-221 18 -352 18q-211 0 -211 -209q0 2 38 15.5t95 27t94 13.5q412 0 412 -342q0 -160 -132 -251t-329 -91q-217 0 -325.5 127.5t-108.5 412.5zM375 399q6 -195 198 -194q184 0 185 117q0 102 -180 102q-37 0 -87.5 -6 t-82.5 -12z" />
<glyph d="M182 799v225h752v-272l-404 -770l-219 59l379 711v47h-508z" />
<glyph d="M98 279q0 98 41 156.5t115 99.5q-131 82 -131 219q0 147 108.5 217.5t299 70.5t299 -70.5t108.5 -217.5q0 -137 -131 -219q53 -35 78.5 -55.5t51.5 -73t26 -127.5q0 -150 -121 -224.5t-311.5 -74.5t-311.5 74.5t-121 224.5zM354 303q0 -102 176.5 -102t176.5 102 q0 47 -28 73.5t-87 47.5h-123q-115 -41 -115 -121zM379 731q0 -78 90 -113h123q90 31 90 115q0 37 -37 62.5t-114.5 25.5t-114.5 -26.5t-37 -63.5z" />
<glyph d="M109 698q0 164 112.5 255t298.5 91q430 0 430 -530q0 -279 -124 -405.5t-330 -126.5q-92 0 -178.5 11t-127.5 23l-40 11l24 211q158 -27 322 -27q92 0 143 55.5t51 151.5l-22 -8q-20 -8 -71.5 -18.5t-111.5 -10.5q-376 0 -376 317zM365 702q0 -45 37.5 -72.5t105.5 -27.5 q49 2 92 11.5t59 17.5l19 6q-4 182 -168 182q-76 0 -110.5 -28t-34.5 -89z" />
<glyph d="M496 -121v1555h71v-1555h-71z" />
<glyph horiz-adv-x="894" d="M25 506q0 399 356 434v270h72v-266l237 -22l-4 -72q-154 18 -233 20v-712l237 16l4 -72q-162 -18 -241 -18v-260h-72v260q-188 10 -272 100.5t-84 321.5zM106 506q0 -195 59.5 -266.5t215.5 -79.5v706q-137 -14 -206 -100t-69 -260z" />
<glyph d="M125 696v70h506l147 334l72 -29l-135 -305h280v-70h-311l-135 -309h448v-70h-479l-147 -337l-72 28l135 309h-307v70h338l135 309h-475z" />
<glyph horiz-adv-x="1105" d="M51 1352h84l420 -633l414 633h86l-391 -604h344v-70h-390l-26 -41v-195h418v-69h-418v-373h-74v373h-420v69h420v195l-26 41h-396v70h350z" />
<glyph d="M184 -512v1536h72v-528q0 -270 49 -359.5t215 -89.5q172 0 332 100l4 3v874h72v-1024h-72v82l-49 -28q-31 -17 -120 -44.5t-167 -27.5q-193 0 -264 104v-598h-72z" />
<glyph d="M143 -496l4 68q127 -6 185 -6q94 0 141 68.5t47 230.5v856h-141v65h141v228q0 365 260 364l191 -6l-4 -65q-125 4 -187 4q-188 0 -188 -299v-226h332v-65h-332v-856q0 -199 -64.5 -283t-195.5 -84z" />
<glyph horiz-adv-x="348" d="M-12 -252l86 430h82l-105 -430h-63z" />
<glyph horiz-adv-x="507" d="M201 0v164h82v-164h-82z" />
<glyph horiz-adv-x="348" d="M8 1079l82 410h78l-98 -410h-62z" />
<glyph horiz-adv-x="1705" d="M240 1073q0 158 109.5 259.5t271.5 101.5h712v-68h-198v-1366h-74v1366h-352v-1366h-74v717h-14q-162 0 -271.5 99t-109.5 257z" />
<glyph horiz-adv-x="583" d="M-2 -197q168 8 230.5 79t62.5 218q0 35 -7.5 125t-7.5 119q0 133 45.5 195.5t159.5 99.5q-115 37 -160 100.5t-45 190.5l15 237q0 147 -62.5 218t-230.5 79l4 66q195 -8 277.5 -93t82.5 -270q0 -43 -7 -136t-7 -116q0 -100 48 -154t165 -87v-66q-117 -29 -165 -86 t-48 -160q0 -27 7 -124t7 -138q0 -184 -82.5 -269t-277.5 -93z" />
<glyph horiz-adv-x="348" d="M-45 1079l98 410h62l-82 -410h-78z" />
<glyph horiz-adv-x="0" d="M178 344q0 55 10.5 101.5t22.5 75t40 60t43 46t54 44t53 42.5l-41 32q-31 25 -39 33l-33 30q-24 22 -31 34t-22.5 35.5t-19.5 45.5l-9 50q-5 29 -5 63q0 340 481 340q489 0 489 -342q0 -39 -3 -69.5t-17 -59t-20.5 -43t-33.5 -42.5l-34 -34q-6 -6 -46 -37.5t-46 -35.5 q14 -12 62 -48t64.5 -53.5t45 -55.5t39 -83t10.5 -106q0 -215 -133 -303.5t-377 -88.5q-504 0 -504 369zM481 418q0 -152 201 -152q207 0 207 152q0 102 -113 155h-180q-66 -31 -90.5 -67.5t-24.5 -87.5zM504 963q0 -14 1 -24.5t6 -21t8 -15.5t13.5 -14t15.5 -12.5 t22.5 -14.5t25.5 -17h180q8 6 22.5 15t19.5 13.5t15.5 11.5t13.5 12t9 12t7 14.5t3 17.5t2 23q0 66 -38.5 94t-143 28t-143.5 -29.5t-39 -92.5z" />
<glyph horiz-adv-x="733" d="M43 774v248h121v266l274 21v-287h252v-248h-252v-387q0 -61 3 -87t22.5 -44t60.5 -18l156 4l12 -236q-137 -31 -209 -31q-184 0 -251.5 83t-67.5 307v409h-121z" />
<glyph horiz-adv-x="901" d="M123 461v229h655v-229h-655z" />
<glyph horiz-adv-x="507" d="M92 0v291h270v-291h-270z" />
<glyph d="M2 217v270h1036v-270h-1036zM2 641v270h1034v-270h-1034z" />
<glyph horiz-adv-x="1064" d="M55 31h877v-271h-877v271z" />
<glyph horiz-adv-x="694" d="M49 545v188q213 53 213 185q0 27 -7 124t-7 138q0 186 89 268t312 90v-229q-94 -8 -119.5 -38t-25.5 -112q0 -35 7 -114.5t7 -108.5q0 -135 -45 -195.5t-160 -99.5q117 -39 161 -98.5t44 -192.5q0 -29 -7 -105.5t-7 -111.5q0 -84 26.5 -116.5t118.5 -41.5v-229 q-223 8 -312 94t-89 273q0 43 7 136t7 116q0 121 -213 180z" />
<glyph horiz-adv-x="583" d="M-219 -33q94 8 119.5 38t25.5 112q0 35 -7 114.5t-7 108.5q0 135 45 195.5t160 99.5q-117 39 -161 98.5t-44 192.5q0 29 7 105.5t7 111.5q0 84 -26.5 116.5t-118.5 40.5v230q223 -8 312 -94t89 -273q0 -43 -7 -136t-7 -116q0 -121 213 -180v-188q-213 -53 -213 -185 q0 -27 7 -124t7 -138q0 -186 -89 -268t-312 -90v229z" />
<glyph horiz-adv-x="839" d="M-100 389v250h387v385h250v-385h391v-250h-391v-389h-250v389h-387z" />
<glyph horiz-adv-x="542" d="M10 111q0 190 64.5 268t200 78t200 -78t64.5 -268q0 -188 -63.5 -263t-201 -75t-201 75t-63.5 263zM236 110.5q0 -65.5 5 -97t12 -39t21 -7.5q23 0 31 24.5t8 119.5q0 96 -8 123.5t-31 27.5q-14 0 -22 -9t-12 -43t-4 -99.5z" />
<glyph horiz-adv-x="542" d="M33 281l217 153h196v-639h-217v400l-96 -66z" />
<glyph horiz-adv-x="542" d="M29 -20l149 120q94 76 94 117q0 31 -75 31l-156 -12l-8 202q150 18 241 19q125 0 176.5 -47.5t51.5 -157.5q0 -68 -26.5 -114t-88.5 -91l-78 -57h193v-195h-473v185z" />
<glyph horiz-adv-x="542" d="M41 -211l12 191q125 -12 193 -13q59 0 59 33q0 29 -53 29h-135v174h131q41 0 41 28q0 31 -56 31l-172 -10l-12 186q139 18 221 19q248 0 248 -183q0 -109 -59 -143q72 -31 71 -149q0 -104 -63.5 -156.5t-177.5 -52.5z" />
<glyph horiz-adv-x="542" d="M20 47l80 387h242l-106 -373h55l28 185h187v-185h22v-194h-22v-72h-215v72h-271v180z" />
<glyph horiz-adv-x="542" d="M37 -190l16 174q115 -18 191 -19q51 0 51 31q0 33 -29 33l-53 -9l-160 23l23 391h424v-184h-254l-6 -51q57 12 90 12q190 0 190 -203q0 -227 -241 -227q-47 0 -107.5 7t-97.5 15z" />
<glyph horiz-adv-x="542" d="M18 90q0 182 62.5 274.5t218.5 92.5q33 0 86 -6.5t90 -12.5l37 -6l-12 -178q-135 12 -193 12q-68 0 -67 -53l12 2q12 2 32.5 5t32.5 3q111 0 162 -53t51 -162q0 -111 -68.5 -173t-174.5 -62q-269 0 -269 317zM240 31q0 -70 36 -70q35 0 35 43t-32 43q-10 0 -20.5 -4 t-14.5 -8z" />
<glyph horiz-adv-x="542" d="M43 219v215h465v-207l-195 -452l-247 39l186 379v26h-209z" />
<glyph horiz-adv-x="542" d="M10 -12q0 90 66 141q-55 41 -56 145q0 182 252 183q254 0 254 -185q0 -92 -55 -145q6 -4 17.5 -13.5t29 -45t17.5 -80.5q0 -117 -66 -166t-197 -49q-133 0 -197.5 49t-64.5 166zM233 -8q0 -45 39 -45t39 45q0 27 -24 51h-29q-25 -24 -25 -51zM236 244q0 -25 22 -51h29 q23 27 22 51q0 39 -36.5 39t-36.5 -39z" />
<glyph horiz-adv-x="542" d="M18 219q0 113 66 175.5t178 62.5q268 0 268 -338q0 -178 -61 -262t-207 -84q-43 0 -98 7t-90 15l-33 6l12 179q100 -12 178 -13q68 0 68 47l-10 -2q-10 -2 -28.5 -4t-33.5 -2q-209 0 -209 213zM238 219q0 -45 32 -45l39 12q0 80 -39 80q-32 0 -32 -47z" />
<glyph horiz-adv-x="1523" d="M111 0v340h295v-340h-295zM633 0v340h295v-340h-295zM1155 0v340h295v-340h-295z" />
<glyph horiz-adv-x="790" d="M10 -35q0 104 37 185t90 129.5t107.5 85t91.5 73.5t37 76v78h295v-84q0 -78 -37 -137.5t-88 -98.5t-103.5 -74.5t-89.5 -85t-37 -110.5q0 -84 30 -118t140 -34q47 0 123 9.5t129 17.5l53 10l33 -270q-240 -57 -350 -57q-246 0 -353.5 91t-107.5 314zM373 682v340h295 v-340h-295z" />
<glyph horiz-adv-x="790" d="M10 379q0 104 37 185t90 129t107.5 85t91.5 74t37 76v78h295v-84q0 -78 -37 -137.5t-88 -98.5t-103.5 -75t-89.5 -85t-37 -110q0 -84 30 -118t140 -34q47 0 123 9.5t129 17.5l53 10l33 -270q-240 -57 -350 -58q-246 0 -353.5 91.5t-107.5 314.5zM373 1096v340h295v-340 h-295z" />
<glyph horiz-adv-x="790" d="M10 379q0 104 37 185t90 129t107.5 85t91.5 74t37 76v78h295v-84q0 -78 -37 -137.5t-88 -98.5t-103.5 -75t-89.5 -85t-37 -110q0 -84 30 -118t140 -34q47 0 123 9.5t129 17.5l53 10l33 -270q-240 -57 -350 -58q-246 0 -353.5 91.5t-107.5 314.5zM373 1096v340h295v-340 h-295z" />
<glyph horiz-adv-x="1024" d="M0 498v250h1024v-250h-1024z" />
<glyph horiz-adv-x="2048" d="M0 498v250h2048v-250h-2048z" />
<glyph horiz-adv-x="507" d="M92 506v340h295v-340h-295z" />
<glyph d="M406 -412l10 901h282l11 -901h-303zM410 682v340h295v-340h-295z" />
<glyph horiz-adv-x="532" d="M10 678q0 182 50.5 411.5t99.5 368.5l49 139h299q-23 -59 -54.5 -158.5t-86 -344t-54.5 -416.5q0 -342 179 -830l16 -43h-299q-23 51 -55.5 139.5t-88 320t-55.5 413.5z" />
<glyph horiz-adv-x="532" d="M-8 -184q23 59 54.5 158.5t85.5 344t54 416.5q0 342 -178 830l-16 43h299q23 -51 55.5 -139.5t87.5 -319.5t55 -413.5t-50 -412t-99 -368.5l-49 -139h-299z" />
<glyph horiz-adv-x="614" d="M57 1595h518v-270h-235v-1245h235v-270h-516z" />
<glyph horiz-adv-x="614" d="M45 80h236v1245h-236v270h518l-2 -1785h-516v270z" />
<glyph horiz-adv-x="694" d="M49 588v229q113 29 153 70t40 114q0 27 -7.5 123.5t-7.5 137.5q0 193 103.5 271.5t339.5 86.5v-270q-94 -8 -120 -27.5t-26 -81.5q0 -35 7.5 -134t7.5 -128q0 -121 -45 -179.5t-160 -94.5q113 -37 159 -102.5t46 -188.5q0 -29 -7.5 -117t-7.5 -123q0 -63 27 -85.5 t119 -31.5v-270q-231 8 -337 90t-106 262q0 43 7.5 134.5t7.5 113.5q0 76 -41 123t-152 78z" />
<glyph horiz-adv-x="694" d="M25 49q94 8 119.5 27.5t25.5 81.5q0 35 -7 134t-7 128q0 121 45 179t159 95q-113 37 -158.5 102.5t-45.5 188.5q0 29 7 117t7 123q0 63 -26.5 85.5t-118.5 30.5v271q231 -8 336.5 -90t105.5 -262q0 -43 -7 -134.5t-7 -113.5q0 -76 41 -123t151 -78v-229 q-113 -29 -152.5 -70t-39.5 -115q0 -27 7 -123t7 -137q0 -193 -103.5 -271.5t-338.5 -86.5v270z" />
<glyph horiz-adv-x="548" d="M12 1696l90 260l527 -189l-82 -231z" />
<glyph horiz-adv-x="548" d="M2 1696l90 260l526 -189l-81 -231z" />
<glyph horiz-adv-x="548" d="M-10 1790l526 188l90 -260l-534 -159z" />
<glyph horiz-adv-x="548" d="M-2 1790l526 188l90 -260l-534 -159z" />
<glyph horiz-adv-x="995" d="M49 1608l268 305h252l269 -305h-308l-84 88l-84 -88h-313z" />
<glyph horiz-adv-x="548" d="M-74 1608l269 305h251l269 -305h-307l-84 88l-84 -88h-314z" />
<glyph horiz-adv-x="548" d="M-94 1905h313l84 -95l84 95h307l-268 -303h-248z" />
<glyph horiz-adv-x="548" d="M-100 1905h313l84 -95l84 95h307l-268 -303h-248z" />
<glyph horiz-adv-x="548" d="M-82 1802q12 14 33.5 36t79 58.5t106.5 36.5q72 0 197 -44t145 -44q53 0 168 80l60 -209q-12 -14 -34 -35.5t-79 -57.5t-107 -36q-57 0 -187 45t-159 45q-25 0 -65.5 -20.5t-69.5 -40.5l-29 -21z" />
<glyph horiz-adv-x="548" d="M-82 1802q12 14 33.5 36t79 58.5t106.5 36.5q72 0 197 -44t145 -44q53 0 168 80l60 -209q-12 -14 -34 -35.5t-79 -57.5t-107 -36q-57 0 -187 45t-159 45q-25 0 -65.5 -20.5t-69.5 -40.5l-29 -21z" />
<glyph horiz-adv-x="548" d="M-72 1626v270h262v-270h-262zM383 1626v270h262v-270h-262z" />
<glyph horiz-adv-x="548" d="M-72 1626v270h262v-270h-262zM383 1626v270h262v-270h-262z" />
<glyph horiz-adv-x="548" d="M-51 1622v238h710v-238h-710z" />
<glyph horiz-adv-x="548" d="M-51 1622v238h710v-238h-710z" />
<glyph horiz-adv-x="548" d="M-61 1905h284q16 -80 96 -80q84 0 99 80h284q-16 -139 -111 -224.5t-271.5 -85.5t-270.5 85.5t-110 224.5z" />
<glyph horiz-adv-x="548" d="M-61 1905h284q16 -80 96 -80q84 0 99 80h284q-16 -139 -111 -224.5t-271.5 -85.5t-270.5 85.5t-110 224.5z" />
<glyph horiz-adv-x="548" d="M-2 1476.5q0 120.5 88 189.5t219 69t219 -69t88 -189.5t-88 -189t-219 -68.5t-219 68.5t-88 189zM209 1476.5q0 -30.5 25.5 -49t70.5 -18.5t70.5 18.5t25.5 49t-25.5 49t-70.5 18.5t-70.5 -18.5t-25.5 -49z" />
<glyph horiz-adv-x="548" d="M-23 1476.5q0 120.5 88.5 189.5t219.5 69t219 -69t88 -189.5t-88 -189t-219 -68.5t-219.5 68.5t-88.5 189zM188 1476.5q0 -30.5 26 -49t71 -18.5t70.5 18.5t25.5 49t-25.5 49t-70.5 18.5t-71 -18.5t-26 -49z" />
<glyph horiz-adv-x="548" d="M-68 1610l138 403l258 -92l-160 -391zM379 1608l137 403l258 -92l-160 -391z" />
<glyph horiz-adv-x="548" d="M-68 1610l138 403l258 -92l-160 -391zM379 1608l137 403l258 -92l-160 -391z" />
<glyph horiz-adv-x="548" d="M137 1591v277h275v-277h-275z" />
<glyph horiz-adv-x="548" d="M137 1591v277h275v-277h-275z" />
<glyph horiz-adv-x="542" d="M10 1090q0 190 64.5 268t200 78t200 -78t64.5 -268q0 -188 -63.5 -263t-201 -75t-201 75t-63.5 263zM236 1089.5q0 -65.5 5 -97t12 -39t21 -7.5q23 0 31 24.5t8 119.5q0 96 -8 123.5t-31 27.5q-14 0 -22 -9t-12 -43t-4 -99.5z" />
<glyph horiz-adv-x="542" d="M12 1260l217 153h197v-639h-217v400l-96 -66z" />
<glyph horiz-adv-x="542" d="M29 774v184l149 121q94 76 94 117q0 31 -75 31l-156 -13l-8 203q150 18 241 19q125 0 176.5 -47.5t51.5 -157.5q0 -68 -26.5 -114t-88.5 -91l-78 -57h193v-195h-473z" />
<glyph horiz-adv-x="542" d="M41 768l12 190q125 -12 193 -12q59 0 59 33q0 29 -53 29h-135v174h131q41 0 41 28q0 31 -56 31l-172 -10l-12 186q139 18 221 19q248 0 248 -183q0 -109 -59 -143q72 -31 71 -149q0 -104 -63.5 -156.5t-177.5 -52.5z" />
<glyph horiz-adv-x="542" d="M20 846v180l80 387h242l-106 -373h55l28 185h187v-185h22v-194h-22v-72h-215v72h-271z" />
<glyph horiz-adv-x="542" d="M37 788l16 175q115 -18 191 -19q51 0 51 31q0 33 -29 33l-53 -9l-160 23l23 391h424v-184h-254l-6 -51q57 12 90 12q190 0 190 -203q0 -227 -241 -227q-47 0 -107.5 7t-97.5 15z" />
<glyph horiz-adv-x="542" d="M18 1069q0 182 62.5 274.5t218.5 92.5q33 0 86 -6.5t90 -12.5l37 -6l-12 -178q-135 12 -193 12q-68 0 -67 -53l12 2q12 2 32.5 5t32.5 3q111 0 162 -53t51 -162q0 -111 -68.5 -173t-174.5 -62q-269 0 -269 317zM240 1010q0 -70 36 -70q35 0 35 43t-32 43q-10 0 -20.5 -4 t-14.5 -8z" />
<glyph horiz-adv-x="542" d="M43 1198v215h465v-207l-195 -452l-247 39l186 378v27h-209z" />
<glyph horiz-adv-x="542" d="M10 967q0 90 66 141q-55 41 -56 145q0 182 252 183q254 0 254 -185q0 -92 -55 -145q6 -4 17.5 -13.5t29 -45t17.5 -80.5q0 -117 -66 -166t-197 -49q-133 0 -197.5 49t-64.5 166zM233 971q0 -45 39 -45t39 45q0 27 -24 51h-29q-25 -24 -25 -51zM236 1223q0 -25 22 -52h29 q23 27 22 52q0 39 -36.5 39t-36.5 -39z" />
<glyph horiz-adv-x="542" d="M18 1198q0 113 66 175.5t178 62.5q268 0 268 -338q0 -178 -61 -262t-207 -84q-43 0 -98 7t-90 15l-33 6l12 178q100 -12 178 -12q68 0 68 47l-10 -2q-10 -2 -28.5 -4t-33.5 -2q-209 0 -209 213zM238 1198q0 -45 32 -45l39 12q0 80 -39 80q-32 0 -32 -47z" />
</font>
</defs>
</svg>
